***Уважаемые пользователи и гости !!! Сайт переехал на новый домен Torrents-club.net. Просьба изменить ваши закладки! ***
 
[ Сегодня идет свободное скачивание без начисления Download ]


Статистика раздачи
Качаю: [ 1 ]
Скачал: [ 3 ]
 
   
 
 
 
 
Султан моего сердца / Kalbimin Sultanı [01-16 из 24] (2018) WEB-DLRip Информация о фильме
Название: Султан моего сердца
Оригинальное название: Kalbimin Sultanı
Год выхода: 2018
Жанр: Мелодрама, история
Режиссер: Керем Чакыроглу, Эда Тексёз
В ролях: Али Эрсан Дура, Александра Никифорова, Эмель Чольгечен, Тансель Онгель, Дмитрий Щербина, Андрей Руденский, Александр Соколовский, Бесте Кокдемир, Тунджер Салман, Тамер Румели, Бюлент Сейран, Итыр Эсен, Отюкен Хюрмюзло, Айтен Сойкок, Ачелья Деврим Йилхан, Аслыхан Малбора, Шамиль Кафкас, Сади Джелиль Дженгиз, Гюлай Гусейнова, Марк Левитас
О фильме:
Стамбул, начало XIX века. Анна, дочь одного из чиновников, работающих в посольстве Российской империи, случайно знакомится с османским султаном Махмудом II. Впечатленный интеллектом и знаниями девушки, правитель приглашает ее работать учительницей его детей, но она поначалу отказывается и уступает только после того, как на нее начинает давить русский посол Дмитрий. Во время работы во дворце Анна понимает, что начинает влюбляться в Махмуда. Но она сталкивается с массой проблем, ведь дети султана не слушаются чужестранку, а обитательницы гарема воспринимают ее как соперницу. Этому есть причина: сам Махмуд тоже влюбляется в новую учительницу.
Страна: Россия, Турция
Студия: Киностудия КИТ, Maya Productions, Global Connection International Media Group
Продолжительность: х ~ 00:50:00
Перевод: Профессиональный многоголосый / Первый канал
Файл
Кодек: XviD
Качество: WEB-DLRip
Видео: XviD, ~ 1 595 Кбит/с, 720x400, 25 кадр/с
Звук: AC3, 2 ch, 192 Кбит/с
Субтитры: нет
Доп. ин.-ция

Внимание! Раздача ведётся путём добавления новых серий

Раздача ведётся путём добавления новых серий, при каждом добавлении создаётся новый торрент. Чтобы начать докачку новой серии, пользователям необходимо сделать следующее:
- Остановить скачивание.
- Удалить старый торрент у себя из клиента (старые серии удалять не надо).
- Скачать новый торрент и запустить его у себя в клиенте вместо старого, при этом указать клиенту путь в старую папку куда и должно происходить скачивание новых серий.
Ваш клиент при этом должен произвести хеширование (проверку) старой папки (если не производит сам - помогите ему сделать это), и будет докачивать только те серии которых у вас ещё нет. Старые серии при этом не удаляются, а продолжают раздаваться!

MediaInfo:

General
Complete name : D:\моё видио\Султан моего сердца (2018)\ 02. Султан моего сердца. (2018).WEBDLRip..avi
Format : AVI
Format/Info : Audio Video Interleave
File size : 649 MiB
Duration : 50mn 30s
Overall bit rate : 1 798 Kbps
Movie name : Sultan.moego.serdca.e02.2018.WEB-DL.(720p).Getty
Writing application : Lavf58.25.100
Video
ID : 0
Format : MPEG-4 Visual
Format profile : [email protected]
Format settings, BVOP : No
Format settings, QPel : No
Format settings, GMC : No warppoints
Format settings, Matrix : Default (H.263)
Codec ID : XVID
Codec ID/Hint : XviD
Duration : 50mn 30s
Bit rate : 1 595 Kbps
Width : 720 pixels
Height : 400 pixels
Display aspect ratio : 16:9
Frame rate : 25.000 fps
Color space : YUV
Chroma subsampling : 4:2:0
Bit depth : 8 bits
Scan type : Progressive
Compression mode : Lossy
Bits/(Pixel*Frame) : 0.222
Stream size : 576 MiB (89%)
Writing library : XviD 67
Audio
ID : 1
Format : AC-3
Format/Info : Audio Coding 3
Mode extension : CM (complete main)
Format settings, Endianness : Big
Codec ID : 2000
Duration : 50mn 30s
Bit rate mode : Constant
Bit rate : 192 Kbps
Channel(s) : 2 channels
Channel positions : Front: L R
Sampling rate : 48.0 KHz
Bit depth : 16 bits
Compression mode : Lossy
Stream size : 69.4 MiB (11%)
Alignment : Aligned on interleaves
Interleave, duration : 32 ms (0.80 video frame)

Скриншоты

Добавлены 1-16 серии.


Последний раз редактировалось: papa1951deda (2019-01-18 23:49), всего редактировалось 3 раз(а)

[Цитировать]

Добавлены 13-16 серии.

[Цитировать]



Показать сообщения:    

Текущее время: 22-Янв 11:55

Часовой пояс: UTC + 6


Вы не можете начинать темы
Вы не можете отвечать на сообщения
Вы не можете редактировать свои сообщения
Вы не можете удалять свои сообщения
Вы не можете голосовать в опросах
Вы не можете прикреплять файлы к сообщениям
Вы не можете скачивать файлы

!ВНИМАНИЕ!
Сайт не предоставляет электронные версии произведений, а занимается лишь коллекционированием и каталогизацией ссылок, присылаемых и публикуемых на форуме нашими читателями. Если вы являетесь правообладателем какого-либо представленного материала и не желаете, чтобы ссылка на него находилась в нашем каталоге, свяжитесь с нами, и мы незамедлительно удалим ее. Файлы для обмена на трекере предоставлены пользователями сайта, и администрация не несет ответственности за их содержание. Просьба не заливать файлы, защищенные авторскими правами, а также файлы нелегального содержания!