***Уважаемые пользователи и гости !!! Сайт переехал на новый домен Torrents-club.net. Просьба изменить ваши закладки! ***
 
[ Сегодня идет свободное скачивание без начисления Download ]


Статистика раздачи
Скачал: [ 6 ]
 
   
 
 
 
 
Хэллоуин / Halloween
«Face Your Fate»-
Год выпуска: 2018
Страна: США
Производство: Blumhouse Productions, Miramax, Rough House Pictures
Жанр: Ужасы, триллер-Режиссёр: Дэвид Гордон Грин
В ролях: Джейми Ли Кёртис, Джуди Грир, Энди Мэтичак, Джеймс Джуд Кортни, Ник Касл, Халук Бильгинер, Уилл Пэттон, Риан Риис, Джефферсон Холл, Тоби Хасс-Перевод: Дублированный | [iTunes]
Субтитры: Английские
Реклама: Отсутствует
Описание: Зло неизменно возвращается, и им нельзя управлять. Его можно временно уничтожить, застрелить, сжечь, но вернется оно всё равно неизбежно. Майкл Майерс не закончил свое дело в Хэддонфилде, и скоро он вернётся домой, чтобы снова убивать.
-Качество: BDRip-AVC | BDRemux | Halloween.2018.BDREMUX.1080p.seleZen
Продолжительность: 01:45:47
Формат: MKV
Видео кодек: MPEG-4 AVC
Аудио кодек: AC3
Видео: 1024x428 (2.40:1), 23,976 fps, x264 ~1 794 kbps avg, 0.171 bit/pixel
Аудио #1: 48 kHz, AC3 Dolby Digital, 3/2 (L,C,R,l,r) + LFE ch, ~384.00 kbps avg | RUS (iTunes)
Аудио #2: 48 kHz, AC3 Dolby Digital, 3/2 (L,C,R,l,r) + LFE ch, ~448.00 kbps avg | ENG-Дата премьеры (мир): 8 сентября 2018
Дата премьеры (РФ): 18 октября 2018, «UPI»
Цифровой релиз: 19 декабря 2018

MediaInfo

Общее
Уникальный идентификатор : 166205739093047517700804814361028114043 (0x7D0A0F9CB3AFBE7BE10AD69798C6B67B)
Полное имя : F:OlLanDGroupHalloween.2018.BDRip(AVC).OlLanDGroup.mkv
Формат : Matroska
Версия формата : Version 4 / Version 2
Размер файла : 1,94 Гбайт
Продолжительность : 1 ч. 45 м.
Общий поток : 2629 Кбит/сек
Название фильма : Halloween 2018 #TorpedoUK#
Дата кодирования : UTC 2019-01-12 05:54:16
Программа кодирования : mkvmerge v29.0.0 ('Like It Or Not') 64-bit
Библиотека кодирования : libebml v1.3.6 + libmatroska v1.4.9
Видео
Идентификатор : 1
Формат : AVC
Формат/Информация : Advanced Video Codec
Профиль формата : [email protected]
Параметр CABAC формата : Да
Параметр ReFrames формата : 10 кадров
Идентификатор кодека : V_MPEG4/ISO/AVC
Продолжительность : 1 ч. 45 м.
Битрейт : 1794 Кбит/сек
Ширина : 1024 пикселя
Высота : 428 пикселей
Соотношение сторон : 2,40:1
Режим частоты кадров : Постоянный
Частота кадров : 23,976 (24000/1001) кадра/сек
Цветовое пространство : YUV
Субдискретизация насыщенности : 4:2:0
Битовая глубина : 8 бит
Тип развёртки : Прогрессивная
Бит/(Пиксели*Кадры) : 0.171
Размер потока : 1,33 Гбайт (68%)
Библиотека кодирования : x264 core 146 r2538 121396c
Настройки программы : cabac=1 / ref=10 / deblock=1:-3:-3 / analyse=0x3:0x113 / me=umh / subme=11 / psy=1 / psy_rd=1.00:0.03 / mixed_ref=1 / me_range=48 / chroma_me=1 / trellis=2 / 8x8dct=1 / cqm=0 / deadzone=21,11 / fast_pskip=1 / chroma_qp_offset=-3 / threads=6 / lookahead_threads=1 / sliced_threads=0 / nr=0 / decimate=1 / interlaced=0 / bluray_compat=0 / constrained_intra=0 / bframes=11 / b_pyramid=2 / b_adapt=2 / b_bias=0 / direct=3 / weightb=1 / open_gop=0 / weightp=2 / keyint=240 / keyint_min=23 / scenecut=40 / intra_refresh=0 / rc_lookahead=40 / rc=2pass / mbtree=0 / bitrate=1794 / ratetol=1.0 / qcomp=0.60 / qpmin=0 / qpmax=69 / qpstep=4 / cplxblur=20.0 / qblur=0.5 / vbv_maxrate=50000 / vbv_bufsize=62500 / nal_hrd=none / filler=0 / ip_ratio=1.40 / pb_ratio=1.30 / aq=1:1.00
Язык : English
Default : Да
Forced : Нет
Аудио #1
Идентификатор : 2
Формат : AC-3
Формат/Информация : Audio Coding 3
Расширение режима : CM (complete main)
Параметр Endianness формата : Big
Идентификатор кодека : A_AC3
Продолжительность : 1 ч. 45 м.
Вид битрейта : Постоянный
Битрейт : 384 Кбит/сек
Каналы : 6 каналов
Расположение каналов : Front: L C R, Side: L R, LFE
Частота : 48,0 КГц
Частота кадров : 31,250 кадров/сек (1536 spf)
Битовая глубина : 16 бит
Метод сжатия : С потерями
Размер потока : 291 Мбайт (15%)
Заголовок : DUB [iTunes]
Язык : Russian
Default : Да
Forced : Нет
Аудио #2
Идентификатор : 3
Формат : AC-3
Формат/Информация : Audio Coding 3
Расширение режима : CM (complete main)
Параметр Endianness формата : Big
Идентификатор кодека : A_AC3
Продолжительность : 1 ч. 45 м.
Вид битрейта : Постоянный
Битрейт : 448 Кбит/сек
Каналы : 6 каналов
Расположение каналов : Front: L C R, Side: L R, LFE
Частота : 48,0 КГц
Частота кадров : 31,250 кадров/сек (1536 spf)
Битовая глубина : 16 бит
Метод сжатия : С потерями
Размер потока : 339 Мбайт (17%)
Заголовок : [Original]
Язык : English
Default : Нет
Forced : Нет
Текст #1
Идентификатор : 4
Формат : UTF-8
Идентификатор кодека : S_TEXT/UTF8
Идентификатор кодека/Информация : UTF-8 Plain Text
Продолжительность : 1 ч. 38 м.
Битрейт : 54 бит/сек
Count of elements : 1181
Размер потока : 39,4 Кбайт (0%)
Заголовок : Full
Язык : English
Default : Нет
Forced : Нет
Текст #2
Идентификатор : 5
Формат : UTF-8
Идентификатор кодека : S_TEXT/UTF8
Идентификатор кодека/Информация : UTF-8 Plain Text
Продолжительность : 1 ч. 44 м.
Битрейт : 62 бит/сек
Count of elements : 1532
Размер потока : 47,7 Кбайт (0%)
Заголовок : SDH
Язык : English
Default : Нет
Forced : Нет
Меню
00:00:00.000 : en:00:00:00.000
00:08:42.522 : en:00:08:42.522
00:14:26.949 : en:00:14:26.949
00:20:46.996 : en:00:20:46.996
00:23:17.855 : en:00:23:17.855
00:27:45.080 : en:00:27:45.080
00:32:55.724 : en:00:32:55.724
00:40:51.366 : en:00:40:51.366
00:44:41.053 : en:00:44:41.053
00:48:26.403 : en:00:48:26.403
00:53:26.453 : en:00:53:26.453
00:59:18.597 : en:00:59:18.597
01:03:22.340 : en:01:03:22.340
01:07:29.629 : en:01:07:29.629
01:14:46.524 : en:01:14:46.524
01:18:10.561 : en:01:18:10.561
01:22:04.837 : en:01:22:04.837
01:30:09.904 : en:01:30:09.904
01:35:33.394 : en:01:35:33.394
01:40:41.494 : en:01:40:41.494

Скриншоты



[Цитировать]

Фильм класный

[Цитировать]

Фильм класный

[Цитировать]

Фильм класный

[Цитировать]



Показать сообщения:    

Текущее время: 22-Янв 13:06

Часовой пояс: UTC + 6


Вы не можете начинать темы
Вы не можете отвечать на сообщения
Вы не можете редактировать свои сообщения
Вы не можете удалять свои сообщения
Вы не можете голосовать в опросах
Вы не можете прикреплять файлы к сообщениям
Вы не можете скачивать файлы

!ВНИМАНИЕ!
Сайт не предоставляет электронные версии произведений, а занимается лишь коллекционированием и каталогизацией ссылок, присылаемых и публикуемых на форуме нашими читателями. Если вы являетесь правообладателем какого-либо представленного материала и не желаете, чтобы ссылка на него находилась в нашем каталоге, свяжитесь с нами, и мы незамедлительно удалим ее. Файлы для обмена на трекере предоставлены пользователями сайта, и администрация не несет ответственности за их содержание. Просьба не заливать файлы, защищенные авторскими правами, а также файлы нелегального содержания!