[ Сегодня идет свободное скачивание без начисления Download ]


Статистика раздачи
Скачал: [ 2 ]
 
   
 
 
 
 
Люба Успенская - К единственному, нежному... (2007) - Год: 2007
Жанр: Шансон
Издание: Astra 331441
Источник (релизер): eloychik ®
Продолжительность: 00:51:01
Кодек: FLAC
Битрейт: Lossless
Тип рипа: image + .cue
Треклист:
01. Не верь чужим словам
02. Белые облака
03. Мужду нами
04. Гитара
05. К единственному, нежному
06. Забываю
07. Тонкий лед
08. Просто кафе
09. Сигаретка
10. Ты вернешься домой
11. Две судьбы
12. Бедное сердце
13. Облака (дуэт с А. Розенбаумом)

Отчёт ЕАС:

Exact Audio Copy V1.3 from 2. September 2016
Отчёт EAC об извлечении, выполненном 5. декабря 2018, 15:28
Люба Успенская / К единственному, нежному..
Дисковод: ASUS DRW-24F1MT Adapter: 1 ID: 0
Режим чтения : Достоверность
Использование точного потока : Да
Отключение кэша аудио : Да
Использование указателей C2 : Нет
Коррекция смещения при чтении : 6
Способность читать области Lead-in и Lead-out : Нет
Заполнение пропущенных сэмплов тишиной : Да
Удаление блоков с тишиной в начале и конце : Нет
При вычислениях CRC использовались нулевые сэмплы : Да
Интерфейс : Встроенный Win32-интерфейс для Win NT/2000
Выходной формат : Пользовательский кодировщик
Выбранный битрейт : 128 kBit/s
Качество : Высокий
Добавление ID3-тега : Нет
Утилита сжатия : C:\Program Files (x86)\Exact Audio Copy\Flac\flac.exe
Дополнительные параметры : -V -8 -T "Date=%year%" -T "Genre=%genre%" %source%
TOC извлечённого CD
Трек | Старт | Длительность | Начальный сектор | Конечный сектор
---------------------------------------------------------------------
1 | 0:00.00 | 3:33.39 | 0 | 16013
2 | 3:33.39 | 4:12.52 | 16014 | 34965
3 | 7:46.16 | 3:30.38 | 34966 | 50753
4 | 11:16.54 | 3:49.17 | 50754 | 67945
5 | 15:05.71 | 4:23.49 | 67946 | 87719
6 | 19:29.45 | 3:42.16 | 87720 | 104385
7 | 23:11.61 | 4:03.17 | 104386 | 122627
8 | 27:15.03 | 4:02.39 | 122628 | 140816
9 | 31:17.42 | 3:28.53 | 140817 | 156469
10 | 34:46.20 | 3:18.05 | 156470 | 171324
11 | 38:04.25 | 3:45.35 | 171325 | 188234
12 | 41:49.60 | 4:13.02 | 188235 | 207211
13 | 46:02.62 | 4:58.36 | 207212 | 229597
Характеристики диапазона извлечения и сообщения об ошибках
Выбранный диапазон
Имя файла E:\Раздачи\Любовь Успенская - К единственному, нежному...\Люба Успенская - К единственному, нежному...wav
Пиковый уровень 98.8 %
Скорость извлечения 6.9 X
Качество диапазона 100.0 %
CRC теста F4AC8022
CRC копии F4AC8022
Копирование... OK
Ошибок не произошло
AccurateRip: сводка
Трек 1 точность не определена (достоверность 1) [18E3FC85], AccurateRip вернул [E2EABA78] (AR v2)
Трек 2 точность не определена (достоверность 1) [5D6A2AA6], AccurateRip вернул [B4943583] (AR v2)
Трек 3 точность не определена (достоверность 1) [3D089BAF], AccurateRip вернул [A4924A8B] (AR v2)
Трек 4 точность не определена (достоверность 1) [26EB71C4], AccurateRip вернул [EB6CD53D] (AR v2)
Трек 5 точность не определена (достоверность 1) [C5B3FB05], AccurateRip вернул [4FC6E07B] (AR v2)
Трек 6 точность не определена (достоверность 1) [F4FF7400], AccurateRip вернул [08FEFA5F] (AR v2)
Трек 7 точность не определена (достоверность 1) [82AD9C4E], AccurateRip вернул [83AE2E3E] (AR v2)
Трек 8 точность не определена (достоверность 1) [0DE6AF94], AccurateRip вернул [196ED3F2] (AR v2)
Трек 9 точность не определена (достоверность 1) [50F001EC], AccurateRip вернул [FAC1D77B] (AR v2)
Трек 10 точность не определена (достоверность 1) [A853FC7E], AccurateRip вернул [97818BD3] (AR v2)
Трек 11 точность не определена (достоверность 1) [4B0DC636], AccurateRip вернул [B4426851] (AR v2)
Трек 12 точность не определена (достоверность 1) [48B9B1B7], AccurateRip вернул [DBD5BFD7] (AR v2)
Трек 13 точность не определена (достоверность 1) [4425A10A], AccurateRip вернул [CCBB2B35] (AR v2)
Ни один трек не прошёл проверки на точность
В вашей базе может быть иной вариант штамповки диска
Конец отчёта
==== Контрольная сумма отчёта B8B5C398A18F2758D089B8BEC49F5C2EFCACD428EE37281634E40C5779E966F3 ====

Cue Sheet (.cue):

REM GENRE Chanson
REM DATE 2007
REM DISCID C50BF50D
REM COMMENT "ExactAudioCopy v1.3"
PERFORMER "Люба Успенская"
TITLE "К единственному, нежному.."
REM COMPOSER ""
FILE "Люба Успенская - К единственному, нежному...flac" WAVE
TRACK 01 AUDIO
TITLE "Не верь чужим словам"
PERFORMER "Люба Успенская"
REM COMPOSER ""
INDEX 01 00:00:00
TRACK 02 AUDIO
TITLE "Белые облака"
PERFORMER "Люба Успенская"
REM COMPOSER ""
INDEX 01 03:33:39
TRACK 03 AUDIO
TITLE "Между нами"
PERFORMER "Люба Успенская"
REM COMPOSER ""
INDEX 01 07:46:16
TRACK 04 AUDIO
TITLE "Гитара"
PERFORMER "Люба Успенская"
REM COMPOSER ""
INDEX 01 11:16:54
TRACK 05 AUDIO
TITLE "К единственному, нежному"
PERFORMER "Люба Успенская"
REM COMPOSER ""
INDEX 01 15:05:71
TRACK 06 AUDIO
TITLE "Забываю"
PERFORMER "Люба Успенская"
REM COMPOSER ""
INDEX 01 19:29:45
TRACK 07 AUDIO
TITLE "Тонкий лед"
PERFORMER "Люба Успенская"
REM COMPOSER ""
INDEX 01 23:11:61
TRACK 08 AUDIO
TITLE "Просто кафе"
PERFORMER "Люба Успенская"
REM COMPOSER ""
INDEX 01 27:15:03
TRACK 09 AUDIO
TITLE "Сигаретка"
PERFORMER "Люба Успенская"
REM COMPOSER ""
INDEX 01 31:17:42
TRACK 10 AUDIO
TITLE "Ты вернешься домой"
PERFORMER "Люба Успенская"
REM COMPOSER ""
INDEX 01 34:46:20
TRACK 11 AUDIO
TITLE "Две судьбы"
PERFORMER "Люба Успенская"
REM COMPOSER ""
INDEX 01 38:04:25
TRACK 12 AUDIO
TITLE "Бедное сердце"
PERFORMER "Люба Успенская"
REM COMPOSER ""
INDEX 01 41:49:60
TRACK 13 AUDIO
TITLE "Облака"
PERFORMER "Люба Успенская"
REM COMPOSER ""
INDEX 01 46:02:62

Отчёт auCDtect Task manager:

-----------------------
DON'T MODIFY THIS FILE
-----------------------
PERFORMER: auCDtect Task Manager, ver. 1.6.0 RC1 build 1.6.0.1
Copyright (c) 2008-2010 y-soft. All rights reserved
ANALYZER: auCDtect: CD records authenticity detector, version 0.8.2
Copyright (c) 2004 Oleg Berngardt. All rights reserved.
Copyright (c) 2004 Alexander Djourik. All rights reserved.
FILE: Люба Успенская - К единственному, нежному...flac
Size: 376812014 Hash: CAC584E9D2E6E94E2EC1692274F1AE0C Accuracy: -m0
Conclusion: CDDA 99%
Signature: 701A9C2AD50C2D79E7E1A0AD52B046FE6324945E

[Цитировать]



Показать сообщения:    

Текущее время: 19-Дек 01:54

Часовой пояс: UTC + 6


Вы не можете начинать темы
Вы не можете отвечать на сообщения
Вы не можете редактировать свои сообщения
Вы не можете удалять свои сообщения
Вы не можете голосовать в опросах
Вы не можете прикреплять файлы к сообщениям
Вы не можете скачивать файлы

!ВНИМАНИЕ!
Сайт не предоставляет электронные версии произведений, а занимается лишь коллекционированием и каталогизацией ссылок, присылаемых и публикуемых на форуме нашими читателями. Если вы являетесь правообладателем какого-либо представленного материала и не желаете, чтобы ссылка на него находилась в нашем каталоге, свяжитесь с нами, и мы незамедлительно удалим ее. Файлы для обмена на трекере предоставлены пользователями сайта, и администрация не несет ответственности за их содержание. Просьба не заливать файлы, защищенные авторскими правами, а также файлы нелегального содержания!