[ Сегодня идет свободное скачивание без начисления Download ]


Статистика раздачи
Качаю: [ 19 ]
Скачал: [ 33 ]
 
   
 
 
 
 
Полицейский с Рублёвки. Мы тебя найдем (2018) WEB-DLRip - Производство: Россия / Legio Felix по заказу телеканала ТНТ
Жанр: комедия, криминал
Режиссер: Илья Куликов
Актеры: Александр Петров, Сергей Бурунов, София Каштанова, Александра Бортич, Татьяна Бабенкова, Роман Попов, Ростислав Гулбис, Сергей Штатнов, Светлана Суханова, Ирина Вилкова и др.
Описание:
Грише Измайлову и его начальнику Владимиру Яковлеву противостоит преступный гений, который решил сделать жизнь рублёвских обитателей невыносимой. Прежде спокойный и безопасный район теперь задыхается от беззакония, злодей посягнул даже на оплот правопорядка — отдел полиции «Барвиха». В борьбе с преступником полицейские решают применить своё тайное оружие: умения и таланты следователя Игоря Мухича.

Возраст: 16+ (зрителям, достигшим 16 лет)
Дата российской премьеры: 3 декабря 2018
Продолжительность: ~00:48:00 серия
Качество видео: WEB-DLRip
Видео: Xvid, 720x304, ~1265 Kbps
Аудио: AC3, 2 ch, 192 Kbps

Mediainfo:

Общее
Полное имя : G:\Politseyskiy.s.Rublevki.S04.2018\Politseyskiy.s.Rublevki.s04.e01.WEB-DLRip.avi
Формат : AVI
Формат/Информация : Audio Video Interleave
Размер файла : 497 Мбайт
Продолжительность : 47 м. 18 с.
Общий поток : 1469 Кбит/сек
Видео
Идентификатор : 0
Формат : MPEG-4 Visual
Профиль формата : Advanced [email protected]
Настройки формата : BVOP2
Параметр BVOP формата : 2
Параметр QPel формата : Нет
Параметр GMC формата : Без точки перехода
Параметр матрицы формата : Default (MPEG)
Идентификатор кодека : XVID
Идентификатор кодека/Подсказка : XviD
Продолжительность : 47 м. 18 с.
Битрейт : 1266 Кбит/сек
Ширина : 720 пикселей
Высота : 304 пикселя
Соотношение сторон : 2,35:1
Частота кадров : 25,000 кадров/сек
Цветовое пространство : YUV
Субдискретизация насыщенности : 4:2:0
Битовая глубина : 8 бит
Тип развёртки : Прогрессивная
Метод сжатия : С потерями
Бит/(Пиксели*Кадры) : 0.231
Размер потока : 428 Мбайт (86%)
Библиотека кодирования : XviD 73
Аудио
Идентификатор : 1
Формат : AC-3
Формат/Информация : Audio Coding 3
Коммерческое название : Dolby Digital
Идентификатор кодека : 2000
Продолжительность : 47 м. 17 с.
Вид битрейта : Постоянный
Битрейт : 192 Кбит/сек
Каналы : 2 канала
Channel layout : L R
Частота : 48,0 КГц
Частота кадров : 31,250 кадров/сек (1536 SPF)
Битовая глубина : 16 бит
Метод сжатия : С потерями
Размер потока : 65,0 Мбайт (13%)
Выравнивание : Соединение по промежуткам
Продолжительность промежутка : 32 мс. (0,80 видеокадр)
ServiceKind/String : Complete Main

Внимание! Раздача ведётся путём добавления новых серий

Внимание! Раздача ведётся путём добавления новых серий; при каждом добавлении создаётся новый торрент.
Чтобы начать докачку новой серии, пользователям необходимо сделать следующее:
1. Остановить скачивание;
2. Удалить старый торрент у себя из клиента (старые серии удалять не надо);
3. Скачать новый торрент и запустить его у себя в клиенте вместо старого, при этом указать клиенту путь в старую папку куда и должно происходить скачивание новых серий. Ваш клиент при этом должен произвести хеширование (проверку) старой папки и будет докачивать только те серии, которых у вас ещё нет. Старые серии при этом не удаляются, а продолжают раздаваться! Eсли вы уже удалили старые серии, то предотвратить повторную закачку старых серий можно, отжав галочку в соответствующих местах при запуске нового торрента.
Скриншоты:

[Цитировать]



Показать сообщения:    

Текущее время: 14-Дек 01:39

Часовой пояс: UTC + 6


Вы не можете начинать темы
Вы не можете отвечать на сообщения
Вы не можете редактировать свои сообщения
Вы не можете удалять свои сообщения
Вы не можете голосовать в опросах
Вы не можете прикреплять файлы к сообщениям
Вы не можете скачивать файлы

!ВНИМАНИЕ!
Сайт не предоставляет электронные версии произведений, а занимается лишь коллекционированием и каталогизацией ссылок, присылаемых и публикуемых на форуме нашими читателями. Если вы являетесь правообладателем какого-либо представленного материала и не желаете, чтобы ссылка на него находилась в нашем каталоге, свяжитесь с нами, и мы незамедлительно удалим ее. Файлы для обмена на трекере предоставлены пользователями сайта, и администрация не несет ответственности за их содержание. Просьба не заливать файлы, защищенные авторскими правами, а также файлы нелегального содержания!