[ Сегодня идет свободное скачивание без начисления Download ]


Статистика раздачи
Скачал: [ 1 ]
 
   
 
 
 
 
Мара
Пожиратель снов
Mara
- Информация
Производство: Великобритания, США / Moon River Studios
Жанр: Ужасы, Триллер, Криминал
Режиссер: Клайв Тонг
Актеры: Ольга Куриленко, Хавьер Ботет, Митч Икинс, Лэнс Э. Николс, Рози Феллнер, Дэнди Баррет, Крэйг Конуэй, Мелисса Болона, Кэти МакГроу
Описание:
Кейт Фуллер приписана к расследованию убийства мужчины, которого, как считает полиция, задушила во сне собственная жена. В качестве свидетеля проходит восьмилетняя дочь убитого, Софи. Все дальше углубляясь в это дело, Кейт узнает о существовании древнего демона, убивающего своих жертв во сне. Она испытывает те же чудовищные симптомы и кошмары, поэтому сон становится для неё опасным.


Возраст: 18+ (зрителям, достигшим 18 лет. запрещено для детей)
Рейтинг MPAA: R (лицам до 17 лет обязательно присутствие взрослого)
Дата мировой премьеры: 22 августа 2018
Дата российской премьеры: 6 сентября 2018, «Наше Кино»
Продолжительность: 01:39:04
Перевод: Дублированный
Файл
Качество видео: BDRemux
Видео: AVC/H.264, 1920x1080, ~24,7 Mbps
Аудио 01: AC3, 6 ch, 384 Kbps - Русский (DUB, iTunes)
Аудио 02: DTS-HD MA, 6 ch, 2660 Kbps - Английский
Субтитры: Английские

Mediainfo:

General
Unique ID : 204772204545461273815605160152858244052 (0x9A0DB12A44F488D20DACD7100C5233D4)
Complete name : D:\Mara.2018.BDREMUX.1080p.selezen.mkv
Format : Matroska
Format version : Version 4
File size : 19.2 GiB
Duration : 1 h 39 min
Overall bit rate mode : Variable
Overall bit rate : 27.7 Mb/s
Movie name : Mara 2018 from селезень
Encoded date : UTC 2018-11-17 22:45:01
Writing application : mkvmerge v28.2.0 ('The Awakening') 64-bit
Writing library : libebml v1.3.6 + libmatroska v1.4.9
Video
ID : 1
Format : AVC
Format/Info : Advanced Video Codec
Format profile : [email protected]
Format settings : CABAC / 4 Ref Frames
Format settings, CABAC : Yes
Format settings, ReFrames : 4 frames
Codec ID : V_MPEG4/ISO/AVC
Duration : 1 h 39 min
Bit rate mode : Variable
Bit rate : 24.7 Mb/s
Maximum bit rate : 37.0 Mb/s
Width : 1 920 pixels
Height : 1 080 pixels
Display aspect ratio : 16:9
Frame rate mode : Constant
Frame rate : 23.976 (24000/1001) FPS
Color space : YUV
Chroma subsampling : 4:2:0
Bit depth : 8 bits
Scan type : Progressive
Bits/(Pixel*Frame) : 0.497
Stream size : 17.1 GiB (89%)
Language : English
Default : Yes
Forced : No
Audio #1
ID : 2
Format : AC-3
Format/Info : Audio Coding 3
Commercial name : Dolby Digital
Codec ID : A_AC3
Duration : 1 h 38 min
Bit rate mode : Constant
Bit rate : 384 kb/s
Channel(s) : 6 channels
Channel layout : L R C LFE Ls Rs
Sampling rate : 48.0 kHz
Frame rate : 31.250 FPS (1536 SPF)
Bit depth : 16 bits
Compression mode : Lossy
Stream size : 272 MiB (1%)
Title : iTunes
Language : Russian
Service kind : Complete Main
Default : Yes
Forced : Yes
Audio #2
ID : 3
Format : DTS XLL
Format/Info : Digital Theater Systems
Commercial name : DTS-HD Master Audio
Codec ID : A_DTS
Duration : 1 h 39 min
Bit rate mode : Variable
Bit rate : 2 660 kb/s
Channel(s) : 6 channels
Channel layout : C L R Ls Rs LFE
Sampling rate : 48.0 kHz
Frame rate : 93.750 FPS (512 SPF)
Bit depth : 24 bits
Compression mode : Lossless
Stream size : 1.84 GiB (10%)
Title : Original
Language : English
Default : No
Forced : No
Text
ID : 4
Format : UTF-8
Codec ID : S_TEXT/UTF8
Codec ID/Info : UTF-8 Plain Text
Duration : 1 h 33 min
Bit rate : 41 b/s
Count of elements : 963
Stream size : 28.5 KiB (0%)
Title : SDH
Language : English
Default : No
Forced : No
Menu
00:00:00.000 : :00:00:00.000
00:05:37.504 : :00:05:37.504
00:12:59.904 : :00:12:59.904
00:17:48.317 : :00:17:48.317
00:24:14.870 : :00:24:14.870
00:29:21.301 : :00:29:21.301
00:38:57.710 : :00:38:57.710
00:43:11.214 : :00:43:11.214
00:49:14.869 : :00:49:14.869
00:55:35.207 : :00:55:35.207
01:03:00.944 : :01:03:00.944
01:06:02.500 : :01:06:02.500
01:15:13.092 : :01:15:13.092
01:23:41.725 : :01:23:41.725
01:28:35.101 : :01:28:35.101
01:31:52.507 : :01:31:52.507

Скриншоты

Скриншоты:

[Цитировать]



Показать сообщения:    

Текущее время: 17-Дек 09:14

Часовой пояс: UTC + 6


Вы не можете начинать темы
Вы не можете отвечать на сообщения
Вы не можете редактировать свои сообщения
Вы не можете удалять свои сообщения
Вы не можете голосовать в опросах
Вы не можете прикреплять файлы к сообщениям
Вы не можете скачивать файлы

!ВНИМАНИЕ!
Сайт не предоставляет электронные версии произведений, а занимается лишь коллекционированием и каталогизацией ссылок, присылаемых и публикуемых на форуме нашими читателями. Если вы являетесь правообладателем какого-либо представленного материала и не желаете, чтобы ссылка на него находилась в нашем каталоге, свяжитесь с нами, и мы незамедлительно удалим ее. Файлы для обмена на трекере предоставлены пользователями сайта, и администрация не несет ответственности за их содержание. Просьба не заливать файлы, защищенные авторскими правами, а также файлы нелегального содержания!