[ Сегодня идет свободное скачивание без начисления Download ]


Статистика раздачи
Скачал: [ 1 ]
 
   
 
 
 
 
Хоккей. Еврохоккейтур 2018-2019. Кубок Карьяла 2018.
Чехия — Россия (11.11.2018) HDTVRip 720p
- Телекомпания: Матч ТВ HD
Жанр: Спорт
Комментаторы: Александр Хаванов, Александр Ткачев
Описание: 11 ноября 2018 года, воскресенье. 14:30 МСК
Еврохоккейтур (Euro Hockey Tour) - ежегодный хоккейный турнир
Кубок Карьяла 2018
Чехия — Россия
Стадион: Хартвалл-Арена (Хельсинки, Финляндия) , вместимость: 13464
Главные судьи: Ласси Хейккинен (Финляндия), Кристиан Викман (Финляндия)
Продолжительность: 01:46:10
Качество видео: HDTVRip
Язык озвучки: Русский
Субтитры: отсутствуют
Видео: AVC/H.264, 1280x720 (16:9), ~4000 Kbps, 50 fps
Аудио: AC3, 2 ch, 48.0 KHz, 192 Kbps

Mediainfo:

Код: выделить все
Общее
Уникальный идентификатор : 5295806545382776707712985575852529020 (0x3FBEF6BEC9C0EFFDDBA3A284ED6D57C)
Полное имя : F:\SPORT\Хоккей\Еврохоккейтур 2018-2019\Еврохоккейтур 1819, Кубок Карьяла Чехия - Россия.mkv
Формат : Matroska
Версия формата : Version 4 / Version 2
Размер файла : 3,09 Гбайт
Продолжительность : 1 ч. 46 м.
Общий поток : 4160 Кбит/сек
Дата кодирования : UTC 2018-11-11 15:47:26
Программа кодирования : mkvmerge v25.0.0 ('Prog Noir') 64-bit
Библиотека кодирования : libebml v1.3.6 + libmatroska v1.4.9
Видео
Идентификатор : 1
Формат : AVC
Формат/Информация : Advanced Video Codec
Профиль формата : [email protected]
Настройки формата : CABAC / 4 Ref Frames
Параметр CABAC формата : Да
Параметр RefFrames формата : 4 кадра
Идентификатор кодека : V_MPEG4/ISO/AVC
Продолжительность : 1 ч. 46 м.
Битрейт : 4000 Кбит/сек
Ширина : 1280 пикселей
Высота : 720 пикселей
Соотношение сторон : 16:9
Режим частоты кадров : Постоянный
Частота кадров : 50,000 кадров/сек
Цветовое пространство : YUV
Субдискретизация насыщенности : 4:2:0
Битовая глубина : 8 бит
Тип развёртки : Прогрессивная
Бит/(Пиксели*Кадры) : 0.087
Размер потока : 2,94 Гбайт (95%)
Библиотека кодирования : x264 core 148 r2597M e86f3a1
Настройки программы : cabac=1 / ref=3 / deblock=1:-2:-2 / analyse=0x3:0x133 / me=umh / subme=7 / psy=1 / psy_rd=1.00:0.20 / mixed_ref=1 / me_range=16 / chroma_me=1 / trellis=1 / 8x8dct=1 / cqm=0 / deadzone=21,11 / fast_pskip=1 / chroma_qp_offset=-3 / threads=10 / lookahead_threads=1 / sliced_threads=0 / nr=0 / decimate=1 / interlaced=0 / bluray_compat=0 / constrained_intra=0 / bframes=3 / b_pyramid=2 / b_adapt=2 / b_bias=0 / direct=3 / weightb=1 / open_gop=0 / weightp=2 / keyint=250 / keyint_min=25 / scenecut=40 / intra_refresh=0 / rc_lookahead=40 / rc=cbr / mbtree=1 / bitrate=4000 / ratetol=1.0 / qcomp=0.60 / qpmin=0 / qpmax=69 / qpstep=4 / vbv_maxrate=4000 / vbv_bufsize=4000 / nal_hrd=none / filler=0 / ip_ratio=1.40 / aq=1:1.00
Default : Да
Forced : Нет
Аудио
Идентификатор : 2
Формат : AC-3
Формат/Информация : Audio Coding 3
Идентификатор кодека : A_AC3
Продолжительность : 1 ч. 46 м.
Вид битрейта : Постоянный
Битрейт : 192 Кбит/сек
Каналы : 2 канала
Расположение каналов : Front: L R
Частота : 48,0 КГц
Частота кадров : 31,250 кадров/сек (1536 SPF)
Битовая глубина : 16 бит
Метод сжатия : С потерями
Задержка видео : 27 мс.
Размер потока : 146 Мбайт (5%)
Язык : English
ServiceKind/String : Complete Main
Default : Да
Forced : Нет
Скриншоты:

[Цитировать]



Показать сообщения:    

Текущее время: 14-Дек 05:33

Часовой пояс: UTC + 6


Вы не можете начинать темы
Вы не можете отвечать на сообщения
Вы не можете редактировать свои сообщения
Вы не можете удалять свои сообщения
Вы не можете голосовать в опросах
Вы не можете прикреплять файлы к сообщениям
Вы не можете скачивать файлы

!ВНИМАНИЕ!
Сайт не предоставляет электронные версии произведений, а занимается лишь коллекционированием и каталогизацией ссылок, присылаемых и публикуемых на форуме нашими читателями. Если вы являетесь правообладателем какого-либо представленного материала и не желаете, чтобы ссылка на него находилась в нашем каталоге, свяжитесь с нами, и мы незамедлительно удалим ее. Файлы для обмена на трекере предоставлены пользователями сайта, и администрация не несет ответственности за их содержание. Просьба не заливать файлы, защищенные авторскими правами, а также файлы нелегального содержания!