[ Сегодня идет свободное скачивание без начисления Download ]


Статистика раздачи
Нет
 
   
 
 
 
 
Балабол [S02] (2018) WEBRip Информация о фильме
Оригинальное название: Балабол
Год выпуска: 2018
Жанр: Детектив, комедия, криминал
Режиссер: Владимир Мельник (II)
В ролях: Константин Юшкевич, Вадим Андреев, Инга Оболдина, Ирина Низина, Мария Пирогова, Илья Шляга, Иван Агапов, Игорь Старосельцев, Константин Тополага, Сергей Неудачин, Антон Ескин
О фильме:
Провинциальный оперативник Саня Балабин — волк-одиночка с неиссякаемым чувством юмора, который твердо уверен: со своими личными проблемами и любыми трудностями на работе он сможет справиться без чьей-либо помощи. Эту уверенность Балабина часто рушит сама жизнь, которая все время подкидывает ему просто безвыходные ситуации, и тут на выручку стражу порядка приходят его верные друзья Грибанов и Кузнечик.. В интересах следствия Балабину нередко приходится иметь дело с женщинами легкого поведения и мелкими мошенниками, бомжами и бродячими музыкантами. В новом сезоне Саня продолжит разбираться с бесконечным ворохом криминальных историй, а также всерьез займется личной жизнью и попытается вернуть жену. Любимая бросила его после 19 лет брака, сказав, что супруг женат только на своей работе. Дочь Маша объявляет о своей скорой свадьбе, и по случаю предстоящего торжества у Балабина наступает краткое перемирие с женой. Но героя временное затишье не устраивает, и ради сохранения семьи он готов пойти на отчаянный поступок...

Страна: Россия
Студия: «ТМ Продакшн»
Продолжительность: 16 x ~ 00:50:00
Перевод: Не требуется
Субтитры: нет
Файл
Формат: avi
Качество: WEBRip
Видео: XviD build 73, 720x400 (16:9), 25.000 fps, ~ 1360 Kbps (~ 0.190 bit/pixel)
Звук: 48.0 kHz, AC3, 2/0 ch, 192 kbps

MediaInfo

General
Complete name : D:RazdachiBalabol.s02.2018.XviD.WEBRip.GeneralFilmBalabol.s02.e01.avi
Format : AVI
Format/Info : Audio Video Interleave
File size : 557 MiB
Duration : 49 min 44 s
Overall bit rate : 1 567 kb/s
Writing application : VirtualDubMod 1.5.10.3 | www.virtualdub-fr.org || (build 2550/release)
Writing library : VirtualDubMod build 2550/release
Video
ID : 0
Format : MPEG-4 Visual
Format profile : Advanced [email protected]
Format settings, BVOP : 1
Format settings, QPel : No
Format settings, GMC : No warppoints
Format settings, Matrix : Custom
Codec ID : XVID
Codec ID/Hint : XviD
Duration : 49 min 44 s
Bit rate : 1 365 kb/s
Width : 720 pixels
Height : 400 pixels
Display aspect ratio : 16:9
Frame rate : 25.000 FPS
Color space : YUV
Chroma subsampling : 4:2:0
Bit depth : 8 bits
Scan type : Progressive
Compression mode : Lossy
Bits/(Pixel*Frame) : 0.190
Stream size : 486 MiB (87%)
Writing library : XviD 73
Audio
ID : 1
Format : AC-3
Format/Info : Audio Coding 3
Format settings, Endianness : Big
Codec ID : 2000
Duration : 49 min 44 s
Bit rate mode : Constant
Bit rate : 192 kb/s
Channel(s) : 2 channels
Channel positions : Front: L R
Sampling rate : 48.0 kHz
Frame rate : 31.250 FPS (1536 SPF)
Bit depth : 16 bits
Compression mode : Lossy
Stream size : 68.3 MiB (12%)
Alignment : Split accross interleaves
Interleave, duration : 40 ms (1.00 video frame)
Interleave, preload duratio : 500 ms
Service kind : Complete Main

Скриншоты

[Цитировать]



Показать сообщения:    

Текущее время: 14-Сен 14:49

Часовой пояс: UTC + 6


Вы не можете начинать темы
Вы не можете отвечать на сообщения
Вы не можете редактировать свои сообщения
Вы не можете удалять свои сообщения
Вы не можете голосовать в опросах
Вы не можете прикреплять файлы к сообщениям
Вы не можете скачивать файлы

!ВНИМАНИЕ!
Сайт не предоставляет электронные версии произведений, а занимается лишь коллекционированием и каталогизацией ссылок, присылаемых и публикуемых на форуме нашими читателями. Если вы являетесь правообладателем какого-либо представленного материала и не желаете, чтобы ссылка на него находилась в нашем каталоге, свяжитесь с нами, и мы незамедлительно удалим ее. Файлы для обмена на трекере предоставлены пользователями сайта, и администрация не несет ответственности за их содержание. Просьба не заливать файлы, защищенные авторскими правами, а также файлы нелегального содержания!

Sitemap