[ Сегодня идет свободное скачивание без начисления Download ]


Статистика раздачи
Нет
 
   
 
 
 
 
Черепашки-ниндзя / Teenage Mutant Ninja Turtles (2014) Информация о фильме
Название: Черепашки-ниндзя
Оригинальное название: Teenage Mutant Ninja Turtles
Год выхода: 2014
Жанр: Фантастика, фэнтези, боевик, комедия, приключения
Режиссер: Джонатан Либесман
В ролях: Меган Фокс, Уилл Арнетт, Уильям Фихтнер, Алан Ричсон, Ноэль Фишер, Пит Пложек, Джонни Ноксвилл, Джереми Ховард, Дэнни Вудберн, Тони Шэлоуб, Тохору Масамуне, Вупи Голдберг, Мина Нодзи, Эбби Эллиотт, Мэдисон Мэйсон, Таран Киллэм, К. Тодд Фриман, Пол Фицджералд, Малина Вайсман, Венида Эванс
О фильме:
Будучи маленькой, Эйприл часто бывала в лаборатории отца, генного инженера, который работал над проектом создания суперсолдат. В результате пожара отец девочки погиб, а все его разработки были безвозвратно утеряны... Все, кроме четырёх подопытных черепашек и крысы. Их Эйприл спустила в канализацию, в надежде, что те как-нибудь смогут выжить. Спустя четырнадцать лет Эйприл вновь встречается с ними. Вот только встреча омрачена событиями, о которых узнаёт юная репортёрша и её друг-оператор: Шреддер, глава клана Фут, решил заразить весь Нью-Йорк смертельным вирусом, а позднее заработать шантажом целое состояние. И теперь всё в руках, то есть лапах, молодых черепашек-ниндзя, неугомонной Эприл О'Нил и её друга Вернона.

Страна: США
Студия: Paramount Pictures, Nickelodeon Movies, Platinum Dunes
Продолжительность: 01:41:17
Перевод: Дублированный
Файл
Кодек: H.265
Качество: BDRemux 2160p
Видео: HEVC HDR, 57.6 Mбит/с, 3840x2160, 23.976 кадр/с
Звук:
Русский (AC3, 6 ch, 640 Кбит/с, 48.0 KHz) / Дублированный
Английский (TrueHD+Atmos, 8 ch, 5544 Кбит/с, 48.0 KHz)
Английский (AC3, 6 ch, 640 Кбит/с, 48.0 KHz)
Субтитры: Русские (Forced, Full), английские (Forced, Full, SDH, SDH Colored)
Семпл

MI

General
Unique ID : 324393083963848644106624815598651465435 (0xF40BD5DDCF7E0F6E45DD047021A65EDB)
Complete name : C:UsersPublicVideosSample VideosFilmyTeenage.Mutant.Ninja.Turtles.2014.BDRemux.2160p.HDR.MediaClub.mkv
Format : Matroska
Format version : Version 4 / Version 2
File size : 45.6 GiB
Duration : 1 h 41 min
Overall bit rate mode : Variable
Overall bit rate : 64.5 Mb/s
Encoded date : UTC 2018-07-21 20:47:13
Writing application : mkvmerge v19.0.0 ('Brave Captain') 64-bit
Writing library : libebml v1.3.5 + libmatroska v1.4.8
Cover : Yes
Attachments : cover.jpg
Video
ID : 1
Format : HEVC
Format/Info : High Efficiency Video Coding
Commercial name : HDR10
Format profile : Main [email protected]@High
Codec ID : V_MPEGH/ISO/HEVC
Duration : 1 h 41 min
Bit rate : 57.6 Mb/s
Width : 3 840 pixels
Height : 2 160 pixels
Display aspect ratio : 16:9
Frame rate mode : Constant
Frame rate : 23.976 (24000/1001) FPS
Color space : YUV
Chroma subsampling : 4:2:0 (Type 2)
Bit depth : 10 bits
Bits/(Pixel*Frame) : 0.290
Stream size : 40.8 GiB (89%)
Title : BDRemux.2160p.HDR by Silverok
Default : Yes
Forced : No
Color range : Limited
Color primaries : BT.2020
Transfer characteristics : PQ
Matrix coefficients : BT.2020 non-constant
Mastering display color primaries : Display P3
Mastering display luminance : min: 0.0001 cd/m2, max: 1000 cd/m2
Audio #1
ID : 2
Format : AC-3
Format/Info : Audio Coding 3
Codec ID : A_AC3
Duration : 1 h 41 min
Bit rate mode : Constant
Bit rate : 640 kb/s
Channel(s) : 6 channels
Channel positions : Front: L C R, Side: L R, LFE
Sampling rate : 48.0 kHz
Frame rate : 31.250 FPS (1536 SPF)
Bit depth : 16 bits
Compression mode : Lossy
Stream size : 464 MiB (1%)
Title : Дублированный
Language : Russian
Service kind : Complete Main
Default : Yes
Forced : No
Audio #2
ID : 3
Format : TrueHD
Format profile : TrueHD+Atmos / TrueHD
Codec ID : A_TRUEHD
Duration : 1 h 41 min
Bit rate mode : Variable
Bit rate : 5 544 kb/s
Maximum bit rate : 8 853 kb/s
Channel(s) : Object Based / 8 channels
Channel positions : Object Based / Front: L C R, Side: L R, Back: L R, LFE
Sampling rate : / 48.0 kHz
Frame rate : 1 200.000 FPS (40 SPF)
Compression mode : Lossless
Stream size : 3.92 GiB (9%)
Language : English
Default : No
Forced : No
Audio #3
ID : 4
Format : AC-3
Format/Info : Audio Coding 3
Codec ID : A_AC3
Duration : 1 h 41 min
Bit rate mode : Constant
Bit rate : 640 kb/s
Channel(s) : 6 channels
Channel positions : Front: L C R, Side: L R, LFE
Sampling rate : 48.0 kHz
Frame rate : 31.250 FPS (1536 SPF)
Bit depth : 16 bits
Compression mode : Lossy
Stream size : 464 MiB (1%)
Language : English
Service kind : Complete Main
Default : No
Forced : No
Text #1
ID : 5
Format : UTF-8
Codec ID : S_TEXT/UTF8
Codec ID/Info : UTF-8 Plain Text
Duration : 1 h 18 min
Bit rate : 1 b/s
Count of elements : 22
Stream size : 1 006 Bytes (0%)
Title : Forced
Language : Russian
Default : Yes
Forced : No
Text #2
ID : 6
Format : UTF-8
Codec ID : S_TEXT/UTF8
Codec ID/Info : UTF-8 Plain Text
Duration : 1 h 33 min
Bit rate : 93 b/s
Count of elements : 1136
Stream size : 64.0 KiB (0%)
Title : Full
Language : Russian
Default : No
Forced : No
Text #3
ID : 7
Format : UTF-8
Codec ID : S_TEXT/UTF8
Codec ID/Info : UTF-8 Plain Text
Duration : 35 min 13 s
Bit rate : 0 b/s
Count of elements : 9
Stream size : 243 Bytes (0%)
Title : Forced
Language : English
Default : No
Forced : No
Text #4
ID : 8
Format : UTF-8
Codec ID : S_TEXT/UTF8
Codec ID/Info : UTF-8 Plain Text
Duration : 1 h 33 min
Bit rate : 63 b/s
Count of elements : 1448
Stream size : 43.1 KiB (0%)
Title : Full
Language : English
Default : No
Forced : No
Text #5
ID : 9
Format : UTF-8
Codec ID : S_TEXT/UTF8
Codec ID/Info : UTF-8 Plain Text
Duration : 1 h 33 min
Bit rate : 72 b/s
Count of elements : 1693
Stream size : 49.8 KiB (0%)
Title : SDH
Language : English
Default : No
Forced : No
Text #6
ID : 10
Format : UTF-8
Codec ID : S_TEXT/UTF8
Codec ID/Info : UTF-8 Plain Text
Duration : 1 h 33 min
Bit rate : 98 b/s
Count of elements : 1717
Stream size : 67.4 KiB (0%)
Title : SDH Colored
Language : English
Default : No
Forced : No
Menu
00:00:00.000 : en:(01)00:00:00:000
00:02:42.287 : en:(02)00:02:42:287
00:06:00.485 : en:(03)00:06:00:485
00:11:51.544 : en:(04)00:11:51:544
00:16:01.835 : en:(05)00:16:01:835
00:22:02.946 : en:(06)00:22:02:946
00:28:22.784 : en:(07)00:28:22:784
00:34:01.831 : en:(08)00:34:01:831
00:38:04.031 : en:(09)00:38:04:031
00:42:10.110 : en:(10)00:42:10:110
00:48:36.413 : en:(11)00:48:36:413
00:55:46.092 : en:(12)00:55:46:092
01:00:44.265 : en:(13)01:00:44:265
01:07:46.604 : en:(14)01:07:46:604
01:15:30.359 : en:(15)01:15:30:359
01:24:10.795 : en:(16)01:24:10:795
01:30:17.036 : en:(17)01:30:17:036
01:34:13.564 : en:(18)01:34:13:564
01:41:17.738 : en:(19)01:41:17:738

Скриншоты

Релиз от: | Silverok

[Цитировать]



Показать сообщения:    

Текущее время: 25-Авг 10:01

Часовой пояс: UTC + 6


Вы не можете начинать темы
Вы не можете отвечать на сообщения
Вы не можете редактировать свои сообщения
Вы не можете удалять свои сообщения
Вы не можете голосовать в опросах
Вы не можете прикреплять файлы к сообщениям
Вы не можете скачивать файлы

!ВНИМАНИЕ!
Сайт не предоставляет электронные версии произведений, а занимается лишь коллекционированием и каталогизацией ссылок, присылаемых и публикуемых на форуме нашими читателями. Если вы являетесь правообладателем какого-либо представленного материала и не желаете, чтобы ссылка на него находилась в нашем каталоге, свяжитесь с нами, и мы незамедлительно удалим ее. Файлы для обмена на трекере предоставлены пользователями сайта, и администрация не несет ответственности за их содержание. Просьба не заливать файлы, защищенные авторскими правами, а также файлы нелегального содержания!