[ Сегодня идет свободное скачивание без начисления Download ]


Статистика раздачи
Буду качать: [ 1 ]
Качаю: [ 2 ]
Скачал: [ 3 ]
 
   
 
 
 
 
Чудеса Арктики / Wonders of the Arctic (IMAX Edition) / 2014 [HEVC, HDR, UHD, 4K / Blu-Ray Remux] (2160p) Год выпуска: 2014
Жанр: Документальный, природа, видовой, музыка, релакс
Выпущено: Канада, Science North
Режиссер: Дэвид Ликли
Продолжительность: 00:41:43
Перевод: Не требуется

О фильме:
Арктика всегда была местом тайн, мифов и волшебства. Сегодня же Арктика - область активных исследований; вместо стремлений завоевать Север, ученые-пионеры ищут ответы на ключевые вопросы последствий воздействия человечества на хрупкий мир Земли.
Техданные
Качество: Blu-Ray Remux (2160p)
Видео: HEVC, 50000 Кбит/с, 3840x2160, 23.976 Кадр/с
Аудио: Английский (AC3, 6 ch, 640 Кбит/с), (TrueHD, 8 ch, 4450 Кбит/с)
Релиз
Мастер 5
Профиль формата: Main [email protected]@Main
Основные цвета: BT.2020
Характеристики трансфера : SMPTE ST 2084
Коэффициенты матрицы: BT.2020 non-constant
Видео кодек: H.265

MediaInfo:

Общее
Уникальный идентификатор : 186585750415078379888322371812695808365 (0x8C5F1BBF949ADF3CB6E541768515196D)
Полное имя : H:\Wonders.of.the.Arctic.2014.DOCU.2160p.BluRay.REMUX.HEVC.HDR.TrueHD.7.1.Atmos-Master5.mkv
Формат : Matroska
Версия формата : Version 4 / Version 2
Размер файла : 16,1 Гбайт
Продолжительность : 41 м.
Режим общего битрейта : Переменный
Общий поток : 55,2 Мбит/сек
Название фильма : Wonders.of.the.Arctic.2014.DOCU.2160p.BluRay.REMUX.HEVC.HDR.TrueHD.7.1.Atmos-Master5
Дата кодирования : UTC 2018-02-12 16:02:29
Программа кодирования : mkvmerge v8.1.0 ('Psychedelic Postcard') 32bit
Библиотека кодирования : libebml v1.3.1 + libmatroska v1.4.2
Обложка : Yes
Attachments : small_cover.jpg / small_cover_land.jpg / cover.jpg / cover_land.jpg
Видео
Идентификатор : 1
Формат : HEVC
Формат/Информация : High Efficiency Video Coding
Профиль формата : Main [email protected]@High
Идентификатор кодека : V_MPEGH/ISO/HEVC
Продолжительность : 41 м.
Битрейт : 50,0 Мбит/сек
Ширина : 3840 пикселей
Высота : 2160 пикселей
Соотношение сторон : 16:9
Режим частоты кадров : Постоянный
Частота кадров : 23,976 (24000/1001) кадра/сек
Цветовое пространство : YUV
Субдискретизация насыщенности : 4:2:0 (Type 2)
Битовая глубина : 10 бит
Бит/(Пиксели*Кадры) : 0.251
Размер потока : 14,6 Гбайт (91%)
Заголовок : Wonders.of.the.Arctic.2014.DOCU.2160p.BluRay.REMUX.HEVC.HDR.TrueHD.7.1.Atmos-Master5
Библиотека кодирования : ATEME Titan KFE 3.7.3 (4.7.3.1001)
Default : Да
Forced : Нет
Цветовой диапазон : Limited
Основные цвета : BT.2020
Характеристики трансфера : SMPTE ST 2084
Коэффициенты матрицы : BT.2020 non-constant
MasteringDisplay_ColorPrimaries : R: x=0.680000 y=0.320000, G: x=0.265000 y=0.690000, B: x=0.150000 y=0.060000, White point: x=0.312700 y=0.329000
MasteringDisplay_Luminance : min: 0.0001 cd/m2, max: 1000.0000 cd/m2
Аудио #1
Идентификатор : 2
Формат : Atmos / TrueHD
Идентификатор кодека : A_TRUEHD
Продолжительность : 41 м.
Вид битрейта : Переменный
Битрейт : 4450 Кбит/сек
Максимальный битрейт : 6408 Кбит/сек
Каналы : Object Based / 8 каналов
Расположение каналов : Object Based / Front: L C R, Side: L R, Back: L R, LFE
Частота : / 48,0 КГц
Частота кадров : 1200,000 кадров/сек (40 spf)
Метод сжатия : Без потерь
Размер потока : 1,30 Гбайт (8%)
Язык : English
Default : Нет
Forced : Нет
Аудио #2
Идентификатор : 3
Формат : AC-3
Формат/Информация : Audio Coding 3
Расширение режима : CM (complete main)
Параметр Endianness формата : Big
Идентификатор кодека : A_AC3
Продолжительность : 41 м.
Вид битрейта : Постоянный
Битрейт : 640 Кбит/сек
Каналы : 6 каналов
Расположение каналов : Front: L C R, Side: L R, LFE
Частота : 48,0 КГц
Частота кадров : 31,250 кадров/сек (1536 spf)
Метод сжатия : С потерями
Размер потока : 191 Мбайт (1%)
Язык : English
Default : Да
Forced : Нет
Меню
00:00:00.000 : en:Chapter 1
00:01:42.310 : en:Chapter 2
00:02:50.503 : en:Chapter 3
00:05:04.304 : en:Chapter 4
00:06:57.542 : en:Chapter 5
00:08:21.918 : en:Chapter 6
00:10:06.606 : en:Chapter 7
00:13:09.789 : en:Chapter 8
00:14:42.715 : en:Chapter 9
00:15:49.782 : en:Chapter 10
00:17:21.790 : en:Chapter 11
00:20:06.455 : en:Chapter 12
00:24:32.721 : en:Chapter 13
00:25:48.088 : en:Chapter 14
00:29:09.998 : en:Chapter 15
00:36:06.873 : en:Chapter 16
00:37:12.146 : en:Chapter 17
00:38:35.021 : en:Chapter 18

Скриншоты

[Цитировать]



Показать сообщения:    

Текущее время: 10-Дек 23:30

Часовой пояс: UTC + 6


Вы не можете начинать темы
Вы не можете отвечать на сообщения
Вы не можете редактировать свои сообщения
Вы не можете удалять свои сообщения
Вы не можете голосовать в опросах
Вы не можете прикреплять файлы к сообщениям
Вы не можете скачивать файлы

!ВНИМАНИЕ!
Сайт не предоставляет электронные версии произведений, а занимается лишь коллекционированием и каталогизацией ссылок, присылаемых и публикуемых на форуме нашими читателями. Если вы являетесь правообладателем какого-либо представленного материала и не желаете, чтобы ссылка на него находилась в нашем каталоге, свяжитесь с нами, и мы незамедлительно удалим ее. Файлы для обмена на трекере предоставлены пользователями сайта, и администрация не несет ответственности за их содержание. Просьба не заливать файлы, защищенные авторскими правами, а также файлы нелегального содержания!