[ Сегодня идет свободное скачивание без начисления Download ]


Статистика раздачи
Скачал: [ 20 ]
 
   
 
 
 
 
Лига справедливости / Justice League (2017) BDRip
«Нельзя спасти мир в одиночку»
Год выпуска: 2017
Страна: США, Великобритания, Канада
Производство: Atlas Entertainment, Cruel & Unusual Films, C Comics, DC Entertainment, Dune Entertainment, Lensbern Productions, Warner Bros. Pictures
Жанр: Фантастика, фэнтези, боевик, приключения
Продолжительность: 02:00:03
Режиссёр: Зак Снайдер
В ролях: Бен Аффлек, Генри Кавиллб,Эми Адамс, Галь Гадот, Эзра Миллер, Джейсон Момоа, Рэй Фишер, Джереми Айронс, Дайан Лэйн, Конни Нильсен
Перевод: Профессиональный (полное дублирование) [Лицензия]
Субтитры: Русские (форсированные) внешние
Описание: Брюс Уэйн, вдохновленный самопожертвованием Супермена, вновь обретает веру в человечество. Он заручается поддержкой новой союзницы, Дианы Принс, чтобы сразиться с еще более могущественным противником. Бэтмен и Чудо-Женщина быстро набирают команду сверхлюдей для борьбы с пробудившейся угрозой. Но несмотря на уникальный состав отряда супергероев — Бэтмен, Чудо-Женщина, Аквамэн, Киборг и Флэш, — быть может, спасать планету от вторжения катастрофических масштабов уже слишком поздно.

Формат: AVI
Качество: BDRip
Видео кодек: XviD
Аудио кодек: AС3
Видео: 688x384 (16:9), 23.976 fps, XviD ~ 1280 kbps avg, 0.202 bit/pixel
Аудио: AC3, 48 kHz, 6 ch, ~ 448.00 kbps avg
Дата премьеры (мир): 13 ноября 2017
Дата премьеры (РФ): 16 ноября 2017, «Каро-Премьер»

MI

General
Complete name                  : F:\Готовые торренты\Justice.League.2017.BDRip.1.46Gb.Dub.MegaPeer\Justice.League.2017.BDRip.1.46Gb.Dub.MegaPeer.avi
Format                         : AVI
Format/Info                    : Audio Video Interleave
File size                      : 1.46 GiB
Duration                       : 2h 0mn
Overall bit rate               : 1 737 Kbps
Writing application            : VirtualDubMod 1.5.10.2 (build 2540/release)
Writing library                : VirtualDubMod build 2540/release
Video
ID                             : 0
Format                         : MPEG-4 Visual
Format profile                 : Advanced [email protected]
Format settings, BVOP          : 1
Format settings, QPel          : No
Format settings, GMC           : No warppoints
Format settings, Matrix        : Custom
Codec ID                       : XVID
Codec ID/Hint                  : XviD
Duration                       : 2h 0mn
Bit rate                       : 1 280 Kbps
Width                          : 688 pixels
Height                         : 384 pixels
Display aspect ratio           : 16:9
Frame rate                     : 23.976 (24000/1001) fps
Color space                    : YUV
Chroma subsampling             : 4:2:0
Bit depth                      : 8 bits
Scan type                      : Progressive
Compression mode               : Lossy
Bits/(Pixel*Frame)             : 0.202
Stream size                    : 1.07 GiB (74%)
Writing library                : XviD 73
Audio
ID                             : 1
Format                         : AC-3
Format/Info                    : Audio Coding 3
Mode extension                 : CM (complete main)
Format settings, Endianness    : Big
Codec ID                       : 2000
Duration                       : 2h 0mn
Bit rate mode                  : Constant
Bit rate                       : 448 Kbps
Channel(s)                     : 6 channels
Channel positions              : Front: L C R, Side: L R, LFE
Sampling rate                  : 48.0 KHz
Frame rate                     : 31.250 fps (1536 spf)
Compression mode               : Lossy
Stream size                    : 385 MiB (26%)
Alignment                      : Split accross interleaves
Interleave, duration           : 42 ms (1.00 video frame)
Interleave, preload duration   : 500 ms

Скриншоты


[Цитировать]



Показать сообщения:    

Текущее время: 13-Дек 05:00

Часовой пояс: UTC + 6


Вы не можете начинать темы
Вы не можете отвечать на сообщения
Вы не можете редактировать свои сообщения
Вы не можете удалять свои сообщения
Вы не можете голосовать в опросах
Вы не можете прикреплять файлы к сообщениям
Вы не можете скачивать файлы

!ВНИМАНИЕ!
Сайт не предоставляет электронные версии произведений, а занимается лишь коллекционированием и каталогизацией ссылок, присылаемых и публикуемых на форуме нашими читателями. Если вы являетесь правообладателем какого-либо представленного материала и не желаете, чтобы ссылка на него находилась в нашем каталоге, свяжитесь с нами, и мы незамедлительно удалим ее. Файлы для обмена на трекере предоставлены пользователями сайта, и администрация не несет ответственности за их содержание. Просьба не заливать файлы, защищенные авторскими правами, а также файлы нелегального содержания!