[ Сегодня идет свободное скачивание без начисления Download ]


Статистика раздачи
Нет
 
   
 
 
 
 
Герника / Gernika (2016) BDRip- Производство: Испания
Жанр: Мелодрама, военный
Режиссер: Кольдо Серра
Актеры: Берн Горман, Джеймс Д`Арси, Джек Девенпорт, Мария Вальверде, Уго Сильва, Ирена Эсколар, Ингрид Гарсия Йонсон, Йоахим Пауль Ассбёк, Алехандро Гарсия, Барбара Гоэнага
Описание: Романтическая драма о разочарованном и циничном американском журналисте, который оказывается единственным «вестником правды» из испанского города Герника, где зверствует гражданская война. В его работу и дальнейшую судьбу вмешивается местная республиканка Тереза, ответственная за цензуру исходящих новостей.

Рейтинг MPAA: R (лицам до 17 лет обязательно присутствие взрослого)
Дата мировой премьеры: 26 апреля 2016
Релиз: MegaPeer
Продолжительность: 01:50:25
Качество видео: BDRip
Перевод: Профессиональный (многоголосый, закадровый) (Лицензия DVD R2)
Субтитры: Отсутствуют
Видео: XviD, 720x304, 1493 Kbps
Аудио: AC-3, 48.0 KHz, 6 ch, 384 Kbps

MediaInfo:

Общее
Полное имя : F:\Gernika.2016.BDRip.1.46Gb.NNM-CLUB.avi
Формат : AVI
Формат/Информация : Audio Video Interleave
Размер файла : 1,46 Гбайт
Продолжительность : 1 ч. 50 м.
Общий поток : 1884 Кбит/сек
Видео
Идентификатор : 0
Формат : MPEG-4 Visual
Профиль формата : Advanced [email protected]
Параметр BVOP формата : 1
Параметр QPel формата : Нет
Параметр GMC формата : Без точки перехода
Параметр матрицы формата : Выборочная
Идентификатор кодека : XVID
Идентификатор кодека/Подсказка : XviD
Продолжительность : 1 ч. 50 м.
Битрейт : 1493 Кбит/сек
Ширина : 720 пикселей
Высота : 304 пикселя
Соотношение сторон : 2,35:1
Частота кадров : 24,000 кадра/сек
Цветовое пространство : YUV
Субдискретизация насыщенности : 4:2:0
Битовая глубина : 8 бит
Тип развёртки : Прогрессивная
Метод сжатия : С потерями
Бит/(Пиксели*Кадры) : 0.284
Размер потока : 1,16 Гбайт (79%)
Библиотека кодирования : XviD 73
Аудио
Идентификатор : 1
Формат : AC-3
Формат/Информация : Audio Coding 3
Расширение режима : CM (complete main)
Параметр Endianness формата : Big
Идентификатор кодека : 2000
Продолжительность : 1 ч. 50 м.
Вид битрейта : Постоянный
Битрейт : 384 Кбит/сек
Каналы : 6 каналов
Расположение каналов : Front: L C R, Side: L R, LFE
Частота : 48,0 КГц
Частота кадров : 31,250 кадров/сек (1536 spf)
Метод сжатия : С потерями
Размер потока : 304 Мбайт (20%)
Выравнивание : Соединение по промежуткам
Продолжительность промежутка : 64 мс. (1,54 видеокадра)
Время предзагрузки промежутка : 192 мс.
Заголовок : DVD R2
Скриншоты: ]

[Цитировать]



Показать сообщения:    

Текущее время: 25-Авг 10:45

Часовой пояс: UTC + 6


Вы не можете начинать темы
Вы не можете отвечать на сообщения
Вы не можете редактировать свои сообщения
Вы не можете удалять свои сообщения
Вы не можете голосовать в опросах
Вы не можете прикреплять файлы к сообщениям
Вы не можете скачивать файлы

!ВНИМАНИЕ!
Сайт не предоставляет электронные версии произведений, а занимается лишь коллекционированием и каталогизацией ссылок, присылаемых и публикуемых на форуме нашими читателями. Если вы являетесь правообладателем какого-либо представленного материала и не желаете, чтобы ссылка на него находилась в нашем каталоге, свяжитесь с нами, и мы незамедлительно удалим ее. Файлы для обмена на трекере предоставлены пользователями сайта, и администрация не несет ответственности за их содержание. Просьба не заливать файлы, защищенные авторскими правами, а также файлы нелегального содержания!