[ Сегодня идет свободное скачивание без начисления Download ]


Статистика раздачи
Нет
 
   
 
 
 
 
Свободный штат Джонса / Free State of Jones (2016) BDRip - Производство: США
Жанр: Боевик, Военный, Драма
Режиссер: Гэри Росс
Актеры: Мэттью МакКонахи, Гугу Мбата-Роу, Махершала Али, Кери Расселл, Кристофер Берри, Шон Бриджерс, Джейкоб Лофленд, Томас Мерфи, Билл Тангради, Брайан Франклин
Описание:
События фильма разворачиваются во время гражданской войны в США. После участия в битве при Коринфе Ньютон Найт — бедный фермер из Миссисипи возглавляет группу дезертиров из армии Конфедерации, выступающих за отмену рабства. Вместе они обустраиваются в округе Джонс, и начинают борьбу против сил Конфедерации.

Рейтинг MPAA: R (лицам до 17 лет обязательно присутствие взрослого)
Дата мировой премьеры: 24.06.2016
Продолжительность: 02:19:55
Качество видео: BDRip
Перевод: Одноголосый закадровый, любительский
Озвучка: Solod
Вид субтитров: Отсутствуют
Реклама: Отсутствует
Видео: AVC/H.264, 1024x554, ~1800 kbps
Аудио: AC3, 6 ch, 448 kbps, CBR

Информация по видеофайлу

General
Unique ID : 23572872144609813047724208436988808506 (0x11BBF85423748C5F5E260E5CC48B0D3A)
Complete name : free.state.of.jones.2016.1024.solod.rus.5.1.mkv
Format : Matroska
Format version : Version 4 / Version 2
File size : 2.20 GiB
Duration : 2 h 19 min
Overall bit rate : 2 250 kb/s
Movie name : Free State of Jones | 2016 | Solod
Released date : 2016
Encoded date : UTC 2016-12-17 15:36:34 / UTC 2016-12-17T05:05:04Z
Writing application : mkvmerge v9.6.0 ('Slave To Your Mind') 64bit
Writing library : libebml v1.3.4 + libmatroska v1.4.5 / Lavf55.12.0
Video
ID : 1
Format : AVC
Format/Info : Advanced Video Codec
Format profile : [email protected]
Format settings, CABAC : Yes
Format settings, ReFrames : 10 frames
Codec ID : V_MPEG4/ISO/AVC
Duration : 2 h 19 min
Bit rate : 1 800 kb/s
Width : 1 024 pixels
Height : 554 pixels
Display aspect ratio : 1.85:1
Original display aspect ratio : 1.85:1
Frame rate mode : Constant
Frame rate : 23.976 (24000/1001) FPS
Color space : YUV
Chroma subsampling : 4:2:0
Bit depth : 8 bits
Scan type : Progressive
Bits/(Pixel*Frame) : 0.132
Stream size : 1.72 GiB (78%)
Writing library : x264 core 148
Encoding settings : cabac=1 / ref=10 / deblock=1:-2:-2 / analyse=0x3:0x113 / me=umh / subme=11 / psy=1 / psy_rd=1,15:0,20 / mixed_ref=1 / me_range=24 / chroma_me=1 / trellis=2 / 8x8dct=1 / cqm=0 / deadzone=21,11 / fast_pskip=1 / chroma_qp_offset=-3 / threads=6 / lookahead_threads=1 / sliced_threads=0 / nr=0 / decimate=1 / interlaced=0 / bluray_compat=0 / constrained_intra=0 / bframes=11 / b_pyramid=2 / b_adapt=1 / b_bias=0 / direct=1 / weightb=1 / open_gop=0 / weightp=2 / keyint=240 / keyint_min=24 / scenecut=40 / intra_refresh=0 / rc_lookahead=40 / rc=2pass / mbtree=1 / bitrate=1800 / ratetol=1,0 / qcomp=0,60 / qpmin=0 / qpmax=69 / qpstep=4 / cplxblur=20,0 / qblur=0,5 / vbv_maxrate=62500 / vbv_bufsize=78125 / nal_hrd=none / filler=0 / ip_ratio=1,40 / aq=1:1,00
Default : Yes
Forced : No
Color range : Limited
Color primaries : BT.709
Transfer characteristics : BT.709
Matrix coefficients : BT.709
Statistics Tags Issue : mkvmerge v9.6.0 ('Slave To Your Mind') 64bit 2016-12-17 15:36:34 / mkvmerge v9.6.0 ('Slave To Your Mind') 64bit 2016-12-17 15:36:34 / UTC 2016-12-17T05:05:04Z
FromStats_BitRate : 1800002
FromStats_Duration : 02:19:55.346000000
FromStats_FrameCount : 201287
FromStats_StreamSize : 1888955197
Audio
ID : 2
Format : AC-3
Format/Info : Audio Coding 3
Mode extension : CM (complete main)
Format settings, Endianness : Big
Codec ID : A_AC3
Duration : 2 h 19 min
Bit rate mode : Constant
Bit rate : 448 kb/s
Channel(s) : 6 channels
Channel positions : Front: L C R, Side: L R, LFE
Sampling rate : 48.0 kHz
Frame rate : 31.250 FPS (1536 spf)
Bit depth : 16 bits
Compression mode : Lossy
Delay relative to video : -83 ms
Stream size : 448 MiB (20%)
Title : vo solod
Language : Russian
Default : Yes
Forced : No
Statistics Tags Issue : mkvmerge v9.6.0 ('Slave To Your Mind') 64bit 2016-12-17 15:36:34 / mkvmerge v9.6.0 ('Slave To Your Mind') 64bit 2016-12-17 15:36:34 / UTC 2016-12-17T05:05:04Z
FromStats_BitRate : 448000
FromStats_Duration : 02:19:55.360000000
FromStats_FrameCount : 262355
FromStats_StreamSize : 470140160
Menu
00:00:00.000 : :Chapter 1
00:08:19.582 : :Chapter 2
00:13:55.918 : :Chapter 3
00:22:14.374 : :Chapter 4
00:30:56.438 : :Chapter 5
00:37:40.132 : :Chapter 6
00:46:02.760 : :Chapter 7
00:49:49.319 : :Chapter 8
00:56:08.823 : :Chapter 9
01:05:06.235 : :Chapter 10
01:13:32.324 : :Chapter 11
01:19:58.960 : :Chapter 12
01:30:22.875 : :Chapter 13
01:36:43.297 : :Chapter 14
01:42:49.872 : :Chapter 15
01:50:23.617 : :Chapter 16
01:55:44.979 : :Chapter 17
02:02:43.856 : :Chapter 18
02:06:56.650 : :Chapter 19
02:13:12.317 : :Chapter 20
Скриншоты:

[Цитировать]



Показать сообщения:    

Текущее время: 10-Дек 23:34

Часовой пояс: UTC + 6


Вы не можете начинать темы
Вы не можете отвечать на сообщения
Вы не можете редактировать свои сообщения
Вы не можете удалять свои сообщения
Вы не можете голосовать в опросах
Вы не можете прикреплять файлы к сообщениям
Вы не можете скачивать файлы

!ВНИМАНИЕ!
Сайт не предоставляет электронные версии произведений, а занимается лишь коллекционированием и каталогизацией ссылок, присылаемых и публикуемых на форуме нашими читателями. Если вы являетесь правообладателем какого-либо представленного материала и не желаете, чтобы ссылка на него находилась в нашем каталоге, свяжитесь с нами, и мы незамедлительно удалим ее. Файлы для обмена на трекере предоставлены пользователями сайта, и администрация не несет ответственности за их содержание. Просьба не заливать файлы, защищенные авторскими правами, а также файлы нелегального содержания!