[ Сегодня идет свободное скачивание без начисления Download ]


Статистика раздачи
Качаю: [ 1 ]
Скачал: [ 2 ]
 
   
 
 
 
 
Титаник / Titanic / 1997 [4K, HEVC, HDR / Blu-Ray Remux] (2160p) Год выпуска: 1997
Жанр: Драма, катастрофа, мелодрама
Выпущено: США, 20th Century Fox, Lightstorm Entertainment, Paramount Pictures
Режиссер: Джеймс Кэмерон
Продолжительность: 03:14:54
Перевод: Дублированный, профессиональный многоголосый, профессиональный двухголосый, авторский
Субтитры: Русские, английские, украинские
возраст 12+

В ролях:
Леонардо ДиКаприо, Билл Пэкстон, Бернард Хилл, Фрэнсис Фишер, Кейт Уинслет, Билли Зейн, Кэти Бэйтс, Джонатан Хайд, Дэвид Уорнер, Йоан Граффадд, Виктор Гарбер, Сьюзи Эймис, Марк Линдсэй Чэпмэн, Дэнни Нуччи, Глория Стюарт, Брендан Коннолли, Джеймс Кэмерон

О фильме:
Титаник... Она ступила на его грандиозную палубу, зная, что лайнер везет ее в будущую тюрьму, имя которой - брак по расчету... Он в последний момент чудом оказался на уровне кают третьего класса, но свято верил, что этот пароход доставит его в будущее, которое в его собственных руках! Кто же мог тогда предположить, что будущее самого лайнера уже предопределено? Но в мире все-же есть непотопляемые вещи... И может быть одна из них - это простая человеческая память?..
Титаник (1997) – трейлер
Техданные
Качество: Blu-Ray Remux (2160p)
Видео: HEVC, 65.2 Мбит/с, 3840x2160
Аудио: Русский (AC3, 6 ch, 448 Кбит/с), (AC3, 6 ch, 384 Кбит/с), (AC3, 2 ch, 192 Кбит/с), (DTS, 6 ch, 768 Кбит/с), (DTS-HD МА, 6 ch, 3897 Кбит/с), английский (DTS-HD МА, 6 ch, 3891 Кбит/с), украинский (AC3, 6 ch, 448 Кбит/с), (AC3, 2 ch, 192 Кбит/с)

MediaInfo:

Общее
Уникальный идентификатор : 262283170840485043932390398376214687314 (0xC551E6B92CE6D33CAE1DC192C91A6E52)
Полное имя : Titanic.1997.UHD.Remux.2160p.HEVC.HDR.IVA(RUS.UKR.ENG).ExKinoRay.mkv
Формат : Matroska
Версия формата : Version 4
Размер файла : 113 Гбайт
Продолжительность : 3 ч. 14 м.
Режим общего битрейта : Переменный
Общий поток : 82,9 Мбит/сек
Название фильма : Титаник / Titanic ( 1997 ) HDR, 4K | IVA(RUS.UKR.ENG) | ExKinoRay
Дата кодирования : UTC 2018-09-03 23:10:25
Программа кодирования : mkvmerge v26.0.0 ('In The Game') 64-bit
Библиотека кодирования : libebml v1.3.6 + libmatroska v1.4.9
Обложка : Yes
Видео
Идентификатор : 1
Формат : HEVC
Формат/Информация : High Efficiency Video Coding
Профиль формата : Main [email protected]@High
Идентификатор кодека : V_MPEGH/ISO/HEVC
Продолжительность : 3 ч. 14 м.
Битрейт : 65,2 Мбит/сек
Ширина : 3840 пикселей
Высота : 2160 пикселей
Соотношение сторон : 16:9
Режим частоты кадров : Постоянный
Частота кадров : 23,976 (24000/1001) кадра/сек
Стандарт вещания : PAL
Цветовое пространство : YUV
Субдискретизация насыщенности : 4:2:0 (Type 2)
Битовая глубина : 10 бит
Бит/(Пиксели*Кадры) : 0.328
Размер потока : 88,6 Гбайт (79%)
Заголовок : Titanic.1997.UHD.2160p
Язык : English
Default : Да
Forced : Нет
Цветовой диапазон : Limited
Основные цвета : BT.2020
Характеристики трансфера : PQ
Коэффициенты матрицы : BT.2020 non-constant
Аудио #1
Идентификатор : 2
Формат : DTS
Формат/Информация : Digital Theater Systems
Идентификатор кодека : A_DTS
Продолжительность : 3 ч. 14 м.
Вид битрейта : Постоянный
Битрейт : 768 Кбит/сек
Каналы : 6 каналов
Channel layout : C L R Ls Rs LFE
Частота : 48,0 КГц
Частота кадров : 93,750 кадра/сек (512 SPF)
Битовая глубина : 24 бит
Метод сжатия : С потерями
Размер потока : 1,04 Гбайт (1%)
Заголовок : | Дублированный, BD |
Язык : Russian
Default : Да
Forced : Нет
Аудио #2
Идентификатор : 3
Формат : AC-3
Формат/Информация : Audio Coding 3
Коммерческое название : Dolby Digital
Идентификатор кодека : A_AC3
Продолжительность : 3 ч. 14 м.
Вид битрейта : Постоянный
Битрейт : 448 Кбит/сек
Каналы : 6 каналов
Channel layout : L R C LFE Ls Rs
Частота : 48,0 КГц
Частота кадров : 31,250 кадров/сек (1536 SPF)
Битовая глубина : 16 бит
Метод сжатия : С потерями
Размер потока : 624 Мбайт (1%)
Заголовок : | Дублированный, R5 |
Язык : Russian
ServiceKind/String : Complete Main
Default : Нет
Forced : Нет
Аудио #3
Идентификатор : 4
Формат : AC-3
Формат/Информация : Audio Coding 3
Коммерческое название : Dolby Digital
Идентификатор кодека : A_AC3
Продолжительность : 3 ч. 14 м.
Вид битрейта : Постоянный
Битрейт : 384 Кбит/сек
Каналы : 6 каналов
Channel layout : L R C LFE Ls Rs
Частота : 48,0 КГц
Частота кадров : 31,250 кадров/сек (1536 SPF)
Битовая глубина : 16 бит
Метод сжатия : С потерями
Размер потока : 535 Мбайт (0%)
Заголовок : | MVO, Киномания |
Язык : Russian
ServiceKind/String : Complete Main
Default : Нет
Forced : Нет
Аудио #4
Идентификатор : 5
Формат : DTS XLL
Формат/Информация : Digital Theater Systems
Коммерческое название : DTS-HD Master Audio
Идентификатор кодека : A_DTS
Продолжительность : 3 ч. 14 м.
Вид битрейта : Переменный
Битрейт : 3918 Кбит/сек
Каналы : 6 каналов
Channel layout : C L R Ls Rs LFE
Частота : 48,0 КГц
Частота кадров : 93,750 кадра/сек (512 SPF)
Битовая глубина : 24 бит
Метод сжатия : Без потерь
Размер потока : 5,33 Гбайт (5%)
Заголовок : | MVO, Гланц, Королева |
Язык : Russian
Default : Нет
Forced : Нет
Аудио #5
Идентификатор : 6
Формат : AC-3
Формат/Информация : Audio Coding 3
Коммерческое название : Dolby Digital
Идентификатор кодека : A_AC3
Продолжительность : 3 ч. 14 м.
Вид битрейта : Постоянный
Битрейт : 448 Кбит/сек
Каналы : 6 каналов
Channel layout : L R C LFE Ls Rs
Частота : 48,0 КГц
Частота кадров : 31,250 кадров/сек (1536 SPF)
Битовая глубина : 16 бит
Метод сжатия : С потерями
Размер потока : 624 Мбайт (1%)
Заголовок : | DVO, НТВ+ |
Язык : Russian
ServiceKind/String : Complete Main
Default : Нет
Forced : Нет
Аудио #6
Идентификатор : 7
Формат : DTS XLL
Формат/Информация : Digital Theater Systems
Коммерческое название : DTS-HD Master Audio
Идентификатор кодека : A_DTS
Продолжительность : 3 ч. 14 м.
Вид битрейта : Переменный
Битрейт : 3915 Кбит/сек
Каналы : 6 каналов
Channel layout : C L R Ls Rs LFE
Частота : 48,0 КГц
Частота кадров : 93,750 кадра/сек (512 SPF)
Битовая глубина : 24 бит
Метод сжатия : Без потерь
Размер потока : 5,32 Гбайт (5%)
Заголовок : | AVO, Ю. Сербин |
Язык : Russian
Default : Нет
Forced : Нет
Аудио #7
Идентификатор : 8
Формат : DTS
Формат/Информация : Digital Theater Systems
Идентификатор кодека : A_DTS
Продолжительность : 3 ч. 14 м.
Вид битрейта : Постоянный
Битрейт : 755 Кбит/сек
Каналы : 6 каналов
Channel layout : C L R Ls Rs LFE
Частота : 48,0 КГц
Частота кадров : 93,750 кадра/сек (512 SPF)
Битовая глубина : 24 бит
Метод сжатия : С потерями
Размер потока : 1,03 Гбайт (1%)
Заголовок : | AVO, А.Гаврилов |
Язык : Russian
Default : Нет
Forced : Нет
Аудио #8
Идентификатор : 9
Формат : AC-3
Формат/Информация : Audio Coding 3
Коммерческое название : Dolby Digital
Идентификатор кодека : A_AC3
Продолжительность : 3 ч. 14 м.
Вид битрейта : Постоянный
Битрейт : 448 Кбит/сек
Каналы : 6 каналов
Channel layout : L R C LFE Ls Rs
Частота : 48,0 КГц
Частота кадров : 31,250 кадров/сек (1536 SPF)
Битовая глубина : 16 бит
Метод сжатия : С потерями
Размер потока : 624 Мбайт (1%)
Заголовок : | AVO, Ю. Живов |
Язык : Russian
ServiceKind/String : Complete Main
Default : Нет
Forced : Нет
Аудио #9
Идентификатор : 10
Формат : AC-3
Формат/Информация : Audio Coding 3
Коммерческое название : Dolby Digital
Идентификатор кодека : A_AC3
Продолжительность : 3 ч. 14 м.
Вид битрейта : Постоянный
Битрейт : 192 Кбит/сек
Каналы : 2 канала
Channel layout : L R
Частота : 48,0 КГц
Частота кадров : 31,250 кадров/сек (1536 SPF)
Битовая глубина : 16 бит
Метод сжатия : С потерями
Размер потока : 267 Мбайт (0%)
Заголовок : | AVO, А. Кашкин |
Язык : Russian
ServiceKind/String : Complete Main
Default : Нет
Forced : Нет
Аудио #10
Идентификатор : 11
Формат : AC-3
Формат/Информация : Audio Coding 3
Коммерческое название : Dolby Digital
Идентификатор кодека : A_AC3
Продолжительность : 3 ч. 14 м.
Вид битрейта : Постоянный
Битрейт : 192 Кбит/сек
Каналы : 2 канала
Channel layout : L R
Частота : 48,0 КГц
Частота кадров : 31,250 кадров/сек (1536 SPF)
Битовая глубина : 16 бит
Метод сжатия : С потерями
Размер потока : 267 Мбайт (0%)
Заголовок : | AVO, С. Визгунов |
Язык : Russian
ServiceKind/String : Complete Main
Default : Нет
Forced : Нет
Аудио #11
Идентификатор : 12
Формат : AC-3
Формат/Информация : Audio Coding 3
Коммерческое название : Dolby Digital
Идентификатор кодека : A_AC3
Продолжительность : 3 ч. 14 м.
Вид битрейта : Постоянный
Битрейт : 192 Кбит/сек
Каналы : 2 канала
Channel layout : L R
Частота : 48,0 КГц
Частота кадров : 31,250 кадров/сек (1536 SPF)
Битовая глубина : 16 бит
Метод сжатия : С потерями
Размер потока : 267 Мбайт (0%)
Заголовок : | AVO, Н. Антонов |
Язык : Russian
ServiceKind/String : Complete Main
Default : Нет
Forced : Нет
Аудио #12
Идентификатор : 13
Формат : AC-3
Формат/Информация : Audio Coding 3
Коммерческое название : Dolby Digital
Идентификатор кодека : A_AC3
Продолжительность : 3 ч. 14 м.
Вид битрейта : Постоянный
Битрейт : 448 Кбит/сек
Каналы : 6 каналов
Channel layout : L R C LFE Ls Rs
Частота : 48,0 КГц
Частота кадров : 31,250 кадров/сек (1536 SPF)
Битовая глубина : 16 бит
Метод сжатия : С потерями
Размер потока : 624 Мбайт (1%)
Заголовок : | Дублированный |
Язык : Ukrainian
ServiceKind/String : Complete Main
Default : Нет
Forced : Нет
Аудио #13
Идентификатор : 14
Формат : AC-3
Формат/Информация : Audio Coding 3
Коммерческое название : Dolby Digital
Идентификатор кодека : A_AC3
Продолжительность : 3 ч. 14 м.
Вид битрейта : Постоянный
Битрейт : 192 Кбит/сек
Каналы : 2 канала
Channel layout : L R
Частота : 48,0 КГц
Частота кадров : 31,250 кадров/сек (1536 SPF)
Битовая глубина : 16 бит
Метод сжатия : С потерями
Размер потока : 267 Мбайт (0%)
Заголовок : | MVO, Новый канал |
Язык : Ukrainian
ServiceKind/String : Complete Main
Default : Нет
Forced : Нет
Аудио #14
Идентификатор : 15
Формат : AC-3
Формат/Информация : Audio Coding 3
Коммерческое название : Dolby Digital
Идентификатор кодека : A_AC3
Продолжительность : 3 ч. 14 м.
Вид битрейта : Постоянный
Битрейт : 192 Кбит/сек
Каналы : 2 канала
Channel layout : L R
Частота : 48,0 КГц
Частота кадров : 31,250 кадров/сек (1536 SPF)
Битовая глубина : 16 бит
Метод сжатия : С потерями
Размер потока : 267 Мбайт (0%)
Заголовок : | MVO, 1+1 |
Язык : Ukrainian
ServiceKind/String : Complete Main
Default : Нет
Forced : Нет
Аудио #15
Идентификатор : 16
Формат : DTS XLL
Формат/Информация : Digital Theater Systems
Коммерческое название : DTS-HD Master Audio
Идентификатор кодека : A_DTS
Продолжительность : 3 ч. 14 м.
Вид битрейта : Переменный
Битрейт : 3893 Кбит/сек
Каналы : 6 каналов
Channel layout : C L R Ls Rs LFE
Частота : 48,0 КГц
Частота кадров : 93,750 кадра/сек (512 SPF)
Битовая глубина : 24 бит
Метод сжатия : Без потерь
Размер потока : 5,29 Гбайт (5%)
Заголовок : | Original |
Язык : English
Default : Нет
Forced : Нет
Аудио #16
Идентификатор : 17
Формат : AC-3
Формат/Информация : Audio Coding 3
Коммерческое название : Dolby Digital
Идентификатор кодека : A_AC3
Продолжительность : 3 ч. 14 м.
Вид битрейта : Постоянный
Битрейт : 640 Кбит/сек
Каналы : 6 каналов
Channel layout : L R C LFE Ls Rs
Частота : 48,0 КГц
Частота кадров : 31,250 кадров/сек (1536 SPF)
Битовая глубина : 16 бит
Метод сжатия : С потерями
Размер потока : 891 Мбайт (1%)
Заголовок : | Audiodescription |
Язык : English
ServiceKind/String : Complete Main
Default : Нет
Forced : Нет
Аудио #17
Идентификатор : 18
Формат : AC-3
Формат/Информация : Audio Coding 3
Коммерческое название : Dolby Digital
Идентификатор кодека : A_AC3
Продолжительность : 3 ч. 14 м.
Вид битрейта : Постоянный
Битрейт : 224 Кбит/сек
Каналы : 2 канала
Channel layout : L R
Частота : 48,0 КГц
Частота кадров : 31,250 кадров/сек (1536 SPF)
Битовая глубина : 16 бит
Метод сжатия : С потерями
Размер потока : 312 Мбайт (0%)
Заголовок : | Commentary |
Язык : English
ServiceKind/String : Complete Main
Default : Нет
Forced : Нет
Аудио #18
Идентификатор : 19
Формат : AC-3
Формат/Информация : Audio Coding 3
Коммерческое название : Dolby Digital
Идентификатор кодека : A_AC3
Продолжительность : 3 ч. 14 м.
Вид битрейта : Постоянный
Битрейт : 224 Кбит/сек
Каналы : 2 канала
Channel layout : L R
Частота : 48,0 КГц
Частота кадров : 31,250 кадров/сек (1536 SPF)
Битовая глубина : 16 бит
Метод сжатия : С потерями
Размер потока : 312 Мбайт (0%)
Заголовок : | Commentary |
Язык : English
ServiceKind/String : Complete Main
Default : Нет
Forced : Нет
Аудио #19
Идентификатор : 20
Формат : AC-3
Формат/Информация : Audio Coding 3
Коммерческое название : Dolby Digital
Идентификатор кодека : A_AC3
Продолжительность : 3 ч. 14 м.
Вид битрейта : Постоянный
Битрейт : 224 Кбит/сек
Каналы : 2 канала
Channel layout : L R
Частота : 48,0 КГц
Частота кадров : 31,250 кадров/сек (1536 SPF)
Битовая глубина : 16 бит
Метод сжатия : С потерями
Размер потока : 312 Мбайт (0%)
Заголовок : | Commentary |
Язык : English
ServiceKind/String : Complete Main
Default : Нет
Forced : Нет
Текст #1
Идентификатор : 21
Формат : UTF-8
Идентификатор кодека : S_TEXT/UTF8
Идентификатор кодека/Информация : UTF-8 Plain Text
Продолжительность : 3 ч. 13 м.
Битрейт : 0 бит/сек
ElementCount : 7
Размер потока : 243 байт (0%)
Заголовок : Forced
Язык : Russian
Default : Да
Forced : Да
Текст #2
Идентификатор : 22
Формат : UTF-8
Идентификатор кодека : S_TEXT/UTF8
Идентификатор кодека/Информация : UTF-8 Plain Text
Продолжительность : 3 ч. 13 м.
Битрейт : 56 бит/сек
ElementCount : 1884
Размер потока : 80,3 Кбайт (0%)
Заголовок : Full, BD
Язык : Russian
Default : Нет
Forced : Нет
Текст #3
Идентификатор : 23
Формат : UTF-8
Идентификатор кодека : S_TEXT/UTF8
Идентификатор кодека/Информация : UTF-8 Plain Text
Продолжительность : 3 ч. 1 м.
Битрейт : 83 бит/сек
ElementCount : 2031
Размер потока : 111 Кбайт (0%)
Заголовок : Full, R5
Язык : Russian
Default : Нет
Forced : Нет
Текст #4
Идентификатор : 24
Формат : UTF-8
Идентификатор кодека : S_TEXT/UTF8
Идентификатор кодека/Информация : UTF-8 Plain Text
Продолжительность : 3 ч. 4 м.
Битрейт : 0 бит/сек
ElementCount : 7
Размер потока : 256 байт (0%)
Заголовок : Forced
Язык : Ukrainian
Default : Нет
Forced : Да
Текст #5
Идентификатор : 25
Формат : UTF-8
Идентификатор кодека : S_TEXT/UTF8
Идентификатор кодека/Информация : UTF-8 Plain Text
Продолжительность : 3 ч. 12 м.
Битрейт : 67 бит/сек
ElementCount : 1856
Размер потока : 95,1 Кбайт (0%)
Заголовок : Full
Язык : Ukrainian
Default : Нет
Forced : Нет
Текст #6
Идентификатор : 26
Формат : UTF-8
Идентификатор кодека : S_TEXT/UTF8
Идентификатор кодека/Информация : UTF-8 Plain Text
Продолжительность : 3 ч. 1 м.
Битрейт : 46 бит/сек
ElementCount : 2103
Размер потока : 61,4 Кбайт (0%)
Заголовок : Full
Язык : English
Default : Нет
Forced : Нет
Текст #7
Идентификатор : 27
Формат : PGS
Идентификатор кодека : S_HDMV/PGS
Идентификатор кодека/Информация : Picture based subtitle format used on BDs/HD-DVDs
Продолжительность : 3 ч. 1 м.
Битрейт : 13,7 Кбит/сек
ElementCount : 4208
Размер потока : 17,8 Мбайт (0%)
Заголовок : PGS ENG
Язык : English
Default : Нет
Forced : Нет
Текст #8
Идентификатор : 28
Формат : PGS
Идентификатор кодека : S_HDMV/PGS
Идентификатор кодека/Информация : Picture based subtitle format used on BDs/HD-DVDs
Продолжительность : 3 ч. 9 м.
Битрейт : 15,7 Кбит/сек
ElementCount : 5208
Размер потока : 21,3 Мбайт (0%)
Заголовок : PGS ENG SDH
Язык : English
Default : Нет
Forced : Нет
Меню
00:00:00.000 : en:00:00:00.000
00:01:14.366 : en:00:01:24.376
00:04:29.978 : en:00:04:39.988
00:08:16.121 : en:00:08:26.131
00:10:36.761 : en:00:10:46.771
00:12:42.637 : en:00:12:52.647
00:16:42.418 : en:00:16:52.428
00:19:57.738 : en:00:20:07.748
00:23:28.866 : en:00:23:38.876
00:26:16.533 : en:00:26:26.543
00:28:53.356 : en:00:29:03.366
00:29:27.516 : en:00:29:37.526
00:34:49.921 : en:00:34:59.931
00:36:38.613 : en:00:36:48.623
00:42:49.150 : en:00:42:59.160
00:45:16.088 : en:00:45:26.098
00:47:01.610 : en:00:47:11.620
00:53:23.033 : en:00:53:33.043
00:56:37.978 : en:00:56:47.988
01:05:22.043 : en:01:05:32.053
01:10:09.955 : en:01:10:19.965
01:13:56.348 : en:01:14:06.358
01:16:00.681 : en:01:16:10.691
01:19:49.034 : en:01:19:59.044
01:22:40.497 : en:01:22:50.507
01:23:30.046 : en:01:23:40.056
01:28:11.619 : en:01:28:21.629
01:29:09.844 : en:01:29:19.854
01:32:42.265 : en:01:32:52.275
01:36:49.094 : en:01:36:59.104
01:44:31.139 : en:01:44:41.149
01:46:11.031 : en:01:46:21.041
01:47:48.837 : en:01:47:58.847
01:50:01.094 : en:01:50:11.104
01:52:11.391 : en:01:52:21.401
01:53:44.317 : en:01:53:54.327
01:55:11.821 : en:01:55:21.831
01:56:00.870 : en:01:56:10.880
01:57:43.222 : en:01:57:53.232
02:06:28.330 : en:02:06:38.340
02:08:39.962 : en:02:08:49.972
02:11:12.072 : en:02:11:22.082
02:15:32.540 : en:02:15:42.550
02:19:33.448 : en:02:19:43.458
02:21:14.549 : en:02:21:24.559
02:25:18.751 : en:02:25:28.761
02:27:18.412 : en:02:27:28.422
02:28:57.261 : en:02:29:07.271
02:29:46.685 : en:02:29:56.695
02:33:21.525 : en:02:33:31.535
02:36:42.350 : en:02:36:52.360
02:38:23.868 : en:02:38:33.878
02:40:24.656 : en:02:40:34.666
02:44:50.630 : en:02:45:00.640
02:47:38.798 : en:02:47:48.808
02:49:12.516 : en:02:49:22.526
02:51:59.600 : en:02:52:09.610
02:53:31.317 : en:02:53:41.327
02:57:43.485 : en:02:57:53.495
02:59:25.295 : en:02:59:35.305
03:01:19.242 : en:03:01:29.252
03:03:03.638 : en:03:03:13.648
03:04:47.867 : en:03:04:57.877
03:07:09.634 : en:03:07:19.644

Скриншоты

[Цитировать]



Показать сообщения:    

Текущее время: 10-Дек 23:39

Часовой пояс: UTC + 6


Вы не можете начинать темы
Вы не можете отвечать на сообщения
Вы не можете редактировать свои сообщения
Вы не можете удалять свои сообщения
Вы не можете голосовать в опросах
Вы не можете прикреплять файлы к сообщениям
Вы не можете скачивать файлы

!ВНИМАНИЕ!
Сайт не предоставляет электронные версии произведений, а занимается лишь коллекционированием и каталогизацией ссылок, присылаемых и публикуемых на форуме нашими читателями. Если вы являетесь правообладателем какого-либо представленного материала и не желаете, чтобы ссылка на него находилась в нашем каталоге, свяжитесь с нами, и мы незамедлительно удалим ее. Файлы для обмена на трекере предоставлены пользователями сайта, и администрация не несет ответственности за их содержание. Просьба не заливать файлы, защищенные авторскими правами, а также файлы нелегального содержания!