[ Сегодня идет свободное скачивание без начисления Download ]


Статистика раздачи
Качаю: [ 2 ]
 
   
 
 
 
 
Титаны Ледникового периода / Titans of the Ice Age / 2013 [HEVC] [4K UHD / Blu-Ray Remux] (2160p) Год выпуска: 2013
Жанр: Документальный, научно-популярный
Выпущено: США, D3D Cinema, Giant Screen Films
Режиссер: Дэвид Кларк
Продолжительность: 00:38:33
Перевод: Отсутствует
Субтитры: Русские, английские, французские
В ролях: Кристофер Пламмер, Тревор Валле, Кристоф Вальтер
О фильме: Фильм перенесет вас в доисторический период и окунет в историю маленького мамонтенка, который вместе со своей мамой кочует по бескрайним равнинам. В фильме максимально правдоподобно и красочно представлены ландшафты необъятных пустынь Северной Америки, Европы и Азии.
Техданные
Качество: Blu-Ray Remux (2160p)
Видео: HEVC, 63000 Кбит/с, 3840x2160, 23.976 Кадр/с
Аудио: Английский (DTS-HD MA, 6 ch, 4027 Кбит/с), французский (DTS, 6 ch, 768 Кбит/с)
Релиз
Мастер 5
Профиль формата: Main [email protected]@High
Цветовой диапазон: Limited
Основные цвета: BT.709
Характеристики трансфера: BT.709
Коэффициенты матрицы: BT.709
Субтитры:Русские, английские, французские

MediaInfo:

Общее
Уникальный идентификатор : 172869976525752604711620239249934899214 (0x820D8BE2AEA78DF3A691DFD5A85BD80E)
Полное имя : H:\Titans.of.the.Ice.Age.2013.DOCU.2160p.BluRay.REMUX.DTS-HD.MA.5.1-Master5.mkv
Формат : Matroska
Версия формата : Version 4 / Version 2
Размер файла : 18,0 Гбайт
Продолжительность : 38 м.
Общий поток : 67,8 Мбит/сек
Название фильма : Titans.of.the.Ice.Age.2013.DOCU.2160p.BluRay.REMUX.DTS-HD.MA.5.1-Master5
Дата кодирования : UTC 2018-02-14 11:05:21
Программа кодирования : mkvmerge v8.1.0 ('Psychedelic Postcard') 32bit
Библиотека кодирования : libebml v1.3.1 + libmatroska v1.4.2
Обложка : Yes
Attachments : small_cover.jpg / small_cover_land.jpg / cover.jpg / cover_land.jpg
Видео
Идентификатор : 1
Формат : HEVC
Формат/Информация : High Efficiency Video Coding
Профиль формата : Main [email protected]@High
Идентификатор кодека : V_MPEGH/ISO/HEVC
Продолжительность : 38 м.
Битрейт : 63,0 Мбит/сек
Ширина : 3840 пикселей
Высота : 2160 пикселей
Соотношение сторон : 16:9
Режим частоты кадров : Постоянный
Частота кадров : 23,976 (24000/1001) кадра/сек
Цветовое пространство : YUV
Субдискретизация насыщенности : 4:2:0
Битовая глубина : 10 бит
Бит/(Пиксели*Кадры) : 0.317
Размер потока : 16,8 Гбайт (93%)
Заголовок : Titans.of.the.Ice.Age.2013.DOCU.2160p.BluRay.REMUX.DTS-HD.MA.5.1-Master5
Библиотека кодирования : ATEME Titan KFE 3.7.3 (4.7.3.1003)
Default : Да
Forced : Нет
Цветовой диапазон : Limited
Основные цвета : BT.709
Характеристики трансфера : BT.709
Коэффициенты матрицы : BT.709
Аудио #1
Идентификатор : 2
Формат : DTS
Формат/Информация : Digital Theater Systems
Профиль формата : MA / Core
Режим : 16
Параметр Endianness формата : Big
Идентификатор кодека : A_DTS
Продолжительность : 38 м.
Вид битрейта : Переменный / Постоянный
Битрейт : 4027 Кбит/сек / 1509 Кбит/сек
Каналы : 6 каналов
Расположение каналов : Front: L C R, Side: L R, LFE
Частота : 48,0 КГц
Частота кадров : 93,750 кадра/сек (512 spf)
Битовая глубина : 24 бит
Метод сжатия : Без потерь / Lossy
Размер потока : 1,07 Гбайт (6%)
Язык : English
Default : Да
Forced : Нет
Аудио #2
Идентификатор : 3
Формат : DTS
Формат/Информация : Digital Theater Systems
Режим : 16
Параметр Endianness формата : Big
Идентификатор кодека : A_DTS
Продолжительность : 38 м.
Вид битрейта : Постоянный
Битрейт : 768 Кбит/сек
Каналы : 6 каналов
Расположение каналов : Front: L C R, Side: L R, LFE
Частота : 48,0 КГц
Частота кадров : 93,750 кадра/сек (512 spf)
Битовая глубина : 24 бит
Метод сжатия : С потерями
Размер потока : 209 Мбайт (1%)
Язык : French
Default : Нет
Forced : Нет
Текст #1
Идентификатор : 4
Формат : PGS
Режим смешивания : zlib
Идентификатор кодека : S_HDMV/PGS
Идентификатор кодека/Информация : Picture based subtitle format used on BDs/HD-DVDs
Продолжительность : 37 м.
Битрейт : 12,1 Кбит/сек
Count of elements : 666
Размер потока : 3,20 Мбайт (0%)
Заголовок : French-PGS
Язык : French
Default : Нет
Forced : Нет
Текст #2
Идентификатор : 5
Формат : UTF-8
Идентификатор кодека : S_TEXT/UTF8
Идентификатор кодека/Информация : UTF-8 Plain Text
Продолжительность : 34 м.
Битрейт : 115 бит/сек
Count of elements : 335
Размер потока : 29,4 Кбайт (0%)
Заголовок : Full
Язык : Russian
Default : Да
Forced : Да
Текст #3
Идентификатор : 6
Формат : UTF-8
Идентификатор кодека : S_TEXT/UTF8
Идентификатор кодека/Информация : UTF-8 Plain Text
Продолжительность : 34 м.
Битрейт : 66 бит/сек
Count of elements : 335
Размер потока : 16,8 Кбайт (0%)
Заголовок : English-SRT
Язык : English
Default : Нет
Forced : Нет
Текст #4
Идентификатор : 7
Формат : PGS
Режим смешивания : zlib
Идентификатор кодека : S_HDMV/PGS
Идентификатор кодека/Информация : Picture based subtitle format used on BDs/HD-DVDs
Продолжительность : 37 м.
Битрейт : 12,1 Кбит/сек
Count of elements : 666
Размер потока : 3,20 Мбайт (0%)
Язык : French
Default : Нет
Forced : Нет
Меню
00:00:00.000 : en:Chapter 1
00:02:38.408 : en:Chapter 2
00:04:45.368 : en:Chapter 3
00:06:17.168 : en:Chapter 4
00:09:14.387 : en:Chapter 5
00:11:03.788 : en:Chapter 6
00:14:04.593 : en:Chapter 7
00:16:29.655 : en:Chapter 8
00:18:29.900 : en:Chapter 9
00:19:40.637 : en:Chapter 10
00:21:39.256 : en:Chapter 11
00:22:16.168 : en:Chapter 12
00:23:29.324 : en:Chapter 13
00:26:55.363 : en:Chapter 14
00:28:36.089 : en:Chapter 15
00:29:43.364 : en:Chapter 16
00:33:13.366 : en:Chapter 17
00:35:58.865 : en:Chapter 18

Скриншоты

[Цитировать]



Показать сообщения:    

Текущее время: 10-Дек 23:03

Часовой пояс: UTC + 6


Вы не можете начинать темы
Вы не можете отвечать на сообщения
Вы не можете редактировать свои сообщения
Вы не можете удалять свои сообщения
Вы не можете голосовать в опросах
Вы не можете прикреплять файлы к сообщениям
Вы не можете скачивать файлы

!ВНИМАНИЕ!
Сайт не предоставляет электронные версии произведений, а занимается лишь коллекционированием и каталогизацией ссылок, присылаемых и публикуемых на форуме нашими читателями. Если вы являетесь правообладателем какого-либо представленного материала и не желаете, чтобы ссылка на него находилась в нашем каталоге, свяжитесь с нами, и мы незамедлительно удалим ее. Файлы для обмена на трекере предоставлены пользователями сайта, и администрация не несет ответственности за их содержание. Просьба не заливать файлы, защищенные авторскими правами, а также файлы нелегального содержания!