[ Сегодня идет свободное скачивание без начисления Download ]


Статистика раздачи
Нет
 
   
 
 
 
 
Спаситель / Savior- Информация:
Страна: США
Жанр: драма, военный
Год выпуска: 1998
Продолжительность: 01:39:20
Перевод: Профессиональный (многоголосый, закадровый) + Авторский (Сергей Визгунов) + Авторский (Константин Дьяконов) + Оригинальный
Субтитры: русские, английские.
Режиссер: Предраг Антониевич / Predrag Antonijevic
В ролях: Деннис Куэйд (Joshua Rose / Guy), Наташа Нинкович (Vera), Стеллан Скарсгард (Peter Dominic), Настасья Кински (Maria Rose), Паскаль Роллен (Paris Priest), Кэтлин Фостер (Christian), Джон МакЛарен (Colonel), Ирфан Менсур (Drill Sergeant), Сергей Трифунович (Goran), Коста Андреевич (Boy on Bridge / Dead Boy in River), Лилиана Крстич (Old Lady), Саня Зогович (Girl On Bridge)
Описание:
Джошуа - сотрудник американских спецслужб в Париже. От рук исламских террористов погибают его жена и сын. Под прикрытием иностранного легиона Джошуа вступает в бой, чтобы отомстить убийцам. Ему придется выбирать между добром и злом.

MPAA: R - Лицам до 17 лет обязательно присутствие взрослого
Качество: DVDRip ( DVD9[Cutom) | Lenape )
Контейнер: MKV
Файл:
Видео: AVC, 712x432 @ 1012x432 (2.35:1), 1701 kbps, 25 fps, 0,221 bpp
Аудио №1: русский / AC3 / 5.1 / 48 kHz / 384 kbps
Аудио №2: русский / AC3 / 2.0 / 48 kHz / 192 kbps
Аудио №3: русский / AC3 / 2.0 / 48 kHz / 192 kbps
Аудио №4: английский / AC3 / 5.1 / 48 kHz / 448 kbps / 16 bit
Навигация по главам: есть

Media Info

Format : Matroska
Format version : Version 2
File size : 2.03 GiB
Duration : 1h 39mn
Overall bit rate : 2 920 Kbps
Movie name : = Спаситель / Savior DVDRip by SC Kosmos =
Encoded date : UTC 2014-08-23 21:10:40
Writing application : mkvmerge v3.3.0 ('Language') gebaut am Mar 24 2010 14:59:24
Writing library : libebml v0.8.0 + libmatroska v0.9.0
Video
ID : 1
Format : AVC
Format/Info : Advanced Video Codec
Format profile : [email protected]
Format settings, CABAC : Yes
Format settings, ReFrames : 12 frames
Codec ID : V_MPEG4/ISO/AVC
Duration : 1h 39mn
Bit rate : 1 701 Kbps
Width : 712 pixels
Height : 432 pixels
Display aspect ratio : 2.35:1
Original display aspect ratio : 2.35:1
Frame rate : 25.000 fps
Color space : YUV
Chroma subsampling : 4:2:0
Bit depth : 8 bits
Scan type : Progressive
Bits/(Pixel*Frame) : 0.221
Stream size : 1.14 GiB (56%)
Title : Спаситель / Savior DVDRip by SC Kosmos
Writing library : x264 core 142 r2453 ea0ca51
Encoding settings : cabac=1 / ref=12 / deblock=1:-2:-2 / analyse=0x3:0x113 / me=umh / subme=11 / psy=1 / psy_rd=1.00:0.00 / mixed_ref=1 / me_range=48 / chroma_me=1 / trellis=2 / 8x8dct=1 / cqm=0 / deadzone=21,11 / fast_pskip=0 / chroma_qp_offset=-2 / threads=12 / lookahead_threads=1 / sliced_threads=0 / nr=0 / decimate=1 / interlaced=0 / bluray_compat=0 / constrained_intra=0 / bframes=12 / b_pyramid=2 / b_adapt=1 / b_bias=0 / direct=3 / weightb=1 / open_gop=0 / weightp=2 / keyint=250 / keyint_min=25 / scenecut=40 / intra_refresh=0 / rc_lookahead=40 / rc=2pass / mbtree=0 / bitrate=1701 / ratetol=1.0 / qcomp=0.60 / qpmin=0 / qpmax=69 / qpstep=4 / cplxblur=20.0 / qblur=0.5 / vbv_maxrate=62500 / vbv_bufsize=78125 / nal_hrd=none / filler=0 / ip_ratio=1.40 / pb_ratio=1.30 / aq=1:1.00
Language : English
Default : No
Forced : No
Audio #1
ID : 2
Format : AC-3
Format/Info : Audio Coding 3
Mode extension : CM (complete main)
Codec ID : A_AC3
Duration : 1h 39mn
Bit rate mode : Constant
Bit rate : 384 Kbps
Channel(s) : 6 channels
Channel positions : Front: L C R, Side: L R, LFE
Sampling rate : 48.0 KHz
Bit depth : 16 bits
Compression mode : Lossy
Stream size : 273 MiB (13%)
Title : MVO
Language : Russian
Default : Yes
Forced : Yes
Audio #2
ID : 3
Format : AC-3
Format/Info : Audio Coding 3
Mode extension : CM (complete main)
Codec ID : A_AC3
Duration : 1h 39mn
Bit rate mode : Constant
Bit rate : 192 Kbps
Channel(s) : 2 channels
Channel positions : Front: L R
Sampling rate : 48.0 KHz
Bit depth : 16 bits
Compression mode : Lossy
Stream size : 136 MiB (7%)
Title : AVO [Сергей Визгунов]
Language : Russian
Default : No
Forced : No
Audio #3
ID : 4
Format : AC-3
Format/Info : Audio Coding 3
Mode extension : CM (complete main)
Codec ID : A_AC3
Duration : 1h 39mn
Bit rate mode : Constant
Bit rate : 192 Kbps
Channel(s) : 2 channels
Channel positions : Front: L R
Sampling rate : 48.0 KHz
Bit depth : 16 bits
Compression mode : Lossy
Stream size : 136 MiB (7%)
Title : AVO [Константин Дьяконов]
Language : Russian
Default : No
Forced : No
Audio #4
ID : 5
Format : AC-3
Format/Info : Audio Coding 3
Mode extension : CM (complete main)
Codec ID : A_AC3
Duration : 1h 39mn
Bit rate mode : Constant
Bit rate : 448 Kbps
Channel(s) : 6 channels
Channel positions : Front: L C R, Side: L R, LFE
Sampling rate : 48.0 KHz
Bit depth : 16 bits
Compression mode : Lossy
Stream size : 318 MiB (15%)
Language : English
Default : No
Forced : No
Text #1
ID : 6
Format : UTF-8
Codec ID : S_TEXT/UTF8
Codec ID/Info : UTF-8 Plain Text
Language : Russian
Default : Yes
Forced : No
Text #2
ID : 7
Format : UTF-8
Codec ID : S_TEXT/UTF8
Codec ID/Info : UTF-8 Plain Text
Language : English
Default : No
Forced : No
Menu
00:00:00.000 : en:Chapter 01
00:08:02.160 : en:Chapter 02
00:13:34.400 : en:Chapter 03
00:23:50.520 : en:Chapter 04
00:32:04.640 : en:Chapter 05
00:39:11.080 : en:Chapter 06
00:45:09.360 : en:Chapter 07
00:52:17.480 : en:Chapter 08
01:02:42.640 : en:Chapter 09
01:12:15.200 : en:Chapter 10
01:23:21.640 : en:Chapter 11
01:29:32.560 : en:Chapter 12

Скриншоты

Скриншоты


[Цитировать]



Показать сообщения:    

Текущее время: 11-Дек 00:28

Часовой пояс: UTC + 6


Вы не можете начинать темы
Вы не можете отвечать на сообщения
Вы не можете редактировать свои сообщения
Вы не можете удалять свои сообщения
Вы не можете голосовать в опросах
Вы не можете прикреплять файлы к сообщениям
Вы не можете скачивать файлы

!ВНИМАНИЕ!
Сайт не предоставляет электронные версии произведений, а занимается лишь коллекционированием и каталогизацией ссылок, присылаемых и публикуемых на форуме нашими читателями. Если вы являетесь правообладателем какого-либо представленного материала и не желаете, чтобы ссылка на него находилась в нашем каталоге, свяжитесь с нами, и мы незамедлительно удалим ее. Файлы для обмена на трекере предоставлены пользователями сайта, и администрация не несет ответственности за их содержание. Просьба не заливать файлы, защищенные авторскими правами, а также файлы нелегального содержания!