[ Сегодня идет свободное скачивание без начисления Download ]


Статистика раздачи
Качаю: [ 1 ]
Скачал: [ 4 ]
 
   
 
 
 
 
Египет: увлекательное путешествие / Egypt: a fascinating journey (2017) WEBRip [H.264/2160p-LQ] [4K] - Производство: США, Nature Relaxation, National Geographic
Жанр: Документальный, природа, видовой, музыка, релакс
Режиссер: Андреа Тоноли
Описание:
Каждый из нас с детства наслышан о далеком и загадочном Египте, о его грандиозных пирамидах и могущественных фараонах, величавом Ниле и молчаливом Сфинксе. Многообразие подводного мира и экзотика Красного моря, ласковое Средиземноморье - это Египет. Любители экзотической природы сделают здесь для себя огромное количество открытий. Города на побережье Красного моря стали международными центрами по подводному плаванию, серфингу, парусному спорту и подводной ловле. Джип сафари поможет ненадолго окунуться в загадки пустынь и почувствовать вкус дикой природы. Откройте для себя красоту и мощь древнего государства, раскинувшегося на бескрайних просторах золотой пустыни.
Релиз от: Мастер 5
Продолжительность: 00:50:25
Качество видео: WEBRip
Перевод: Не требуется (нет диалогов и комментариев)
Субтитры: отсутствуют
Видео: AVC/H.264, 3840х2160, ~19.4 Mbps
Аудио: AAC, 2 ch, 126 kbps

Mediainfo:

Общее
Уникальный идентификатор : 212155348387054887778562236918556105913 (0x9F9BA242D1450DD1A6F82700626D9CB9)
Полное имя : F:\КИНО\Journey to Egypt - 4K Nature Documentary Film with the Red Sea _Master5.mkv
Формат : Matroska
Версия формата : Version 4 / Version 2
Размер файла : 6,84 Гбайт
Продолжительность : 50 м. 18 с.
Общий поток : 19,5 Мбит/сек
Название фильма : Journey to Egypt - 4K Nature Documentary Film with the Red Sea _Master5
Дата кодирования : UTC 2017-06-18 22:59:02
Программа кодирования : mkvmerge v8.1.0 ('Psychedelic Postcard') 32bit
Библиотека кодирования : libebml v1.3.1 + libmatroska v1.4.2
Видео
Идентификатор : 1
Формат : AVC
Формат/Информация : Advanced Video Codec
Профиль формата : [email protected]
Параметр CABAC формата : Нет
Параметр ReFrames формата : 2 кадра
Идентификатор кодека : V_MPEG4/ISO/AVC
Продолжительность : 50 м. 17 с.
Битрейт : 19,4 Мбит/сек
Ширина : 3840 пикселей
Высота : 2160 пикселей
Соотношение сторон : 16:9
Режим частоты кадров : Постоянный
Частота кадров : 23,976 кадра/сек
Цветовое пространство : YUV
Субдискретизация насыщенности : 4:2:0
Битовая глубина : 8 бит
Тип развёртки : Прогрессивная
Бит/(Пиксели*Кадры) : 0.097
Размер потока : 6,80 Гбайт (99%)
Заголовок : Journey to Egypt - 4K Nature Documentary Film with the Red Sea _Master5
Default : Да
Forced : Нет
Цветовой диапазон : Limited
Основные цвета : BT.709
Характеристики трансфера : BT.709
Коэффициенты матрицы : BT.709
Аудио
Идентификатор : 2
Формат : AAC
Формат/Информация : Advanced Audio Codec
Профиль формата : LC
Идентификатор кодека : A_AAC
Продолжительность : 50 м. 18 с.
Битрейт : 126 Кбит/сек
Каналы : 2 канала
Расположение каналов : Front: L R
Частота : 44,1 КГц
Частота кадров : 43,066 кадра/сек (1024 spf)
Метод сжатия : С потерями
Размер потока : 45,2 Мбайт (1%)
Default : Да
Forced : Нет
Скриншоты:

[Цитировать]



Показать сообщения:    

Текущее время: 11-Дек 00:04

Часовой пояс: UTC + 6


Вы не можете начинать темы
Вы не можете отвечать на сообщения
Вы не можете редактировать свои сообщения
Вы не можете удалять свои сообщения
Вы не можете голосовать в опросах
Вы не можете прикреплять файлы к сообщениям
Вы не можете скачивать файлы

!ВНИМАНИЕ!
Сайт не предоставляет электронные версии произведений, а занимается лишь коллекционированием и каталогизацией ссылок, присылаемых и публикуемых на форуме нашими читателями. Если вы являетесь правообладателем какого-либо представленного материала и не желаете, чтобы ссылка на него находилась в нашем каталоге, свяжитесь с нами, и мы незамедлительно удалим ее. Файлы для обмена на трекере предоставлены пользователями сайта, и администрация не несет ответственности за их содержание. Просьба не заливать файлы, защищенные авторскими правами, а также файлы нелегального содержания!